<?xml version="1.0" standalone="no"?>
<!DOCTYPE svg PUBLIC "-//W3C//DTD SVG 1.1//EN" "http://www.w3.org/Graphics/SVG/1.1/DTD/svg11.dtd" >
<svg xmlns="http://www.w3.org/2000/svg" xmlns:xlink="http://www.w3.org/1999/xlink" version="1.1">
<metadata>
Created by FontForge 20201107 at Thu May 17 18:00:02 2007
 By Unknown
Copyright (c) 1997, 2001, Berthold LLC. All rights reserved. Akzidenz-Grotesk is a trademark of Berthold Types Limited.
</metadata>
<defs>
<font id="AkzidenzGroteskBQ-Medium" horiz-adv-x="562" >
  <font-face 
    font-family="Akzidenz-Grotesk BQ"
    font-weight="500"
    font-stretch="normal"
    units-per-em="1000"
    panose-1="0 0 0 0 0 0 0 0 0 0"
    ascent="800"
    descent="-200"
    x-height="500"
    cap-height="706"
    bbox="-45 -222 1225 963"
    underline-thickness="92"
    underline-position="-222"
    stemh="107"
    stemv="120"
    unicode-range="U+0020-2122"
  />
<missing-glyph horiz-adv-x="500" 
 />
    <glyph glyph-name=".notdef" horiz-adv-x="500" 
 />
    <glyph glyph-name="space" unicode=" " horiz-adv-x="288" 
 />
    <glyph glyph-name="exclam" unicode="!" horiz-adv-x="250" 
d="M211 436l-38 -260h-56l-37 260v270h131v-270zM211 0h-131v138h131v-138z" />
    <glyph glyph-name="quotedbl" unicode="&#x22;" horiz-adv-x="332" 
d="M297 743l-31 -299h-34l-32 299h97zM131 743l-30 -299h-35l-31 299h96z" />
    <glyph glyph-name="numbersign" unicode="#" horiz-adv-x="667" 
d="M623 408h-131l-14 -94h123v-100h-135l-31 -214h-101l31 214h-99l-30 -214h-102l30 214h-122v100h135l13 94h-126v100h139l27 198h104l-28 -198h98l27 198h101l-27 -198h118v-100zM391 408h-99l-14 -94h100z" />
    <glyph glyph-name="dollar" unicode="$" horiz-adv-x="625" 
d="M586 219c0 -58 -17 -105 -58 -146c-30 -30 -62 -45 -76 -51c-23 -9 -46 -15 -94 -22v-114h-92v114c-59 11 -97 19 -147 52c-10 7 -30 21 -53 44c-6 6 -17 19 -31 37l101 77c12 -17 31 -42 71 -68c15 -9 29 -16 35 -17c5 -2 12 -4 24 -5v191c-104 11 -154 42 -183 83
c-11 17 -29 48 -29 97c0 21 4 77 43 124c26 31 76 72 169 82v108h92v-108c120 -11 186 -75 216 -109l-95 -75c-46 59 -89 67 -121 75v-160c15 -2 100 -16 156 -57c69 -52 72 -121 72 -152zM266 444v144c-3 -1 -15 -3 -24 -6c-11 -4 -57 -22 -57 -71c0 -18 7 -34 20 -44
c10 -8 31 -18 61 -23zM454 212c-1 70 -87 83 -96 85v-179c7 1 16 2 30 8s66 29 66 86z" />
    <glyph glyph-name="percent" unicode="%" horiz-adv-x="875" 
d="M850 223c0 -10 1 -60 -9 -99c-8 -34 -40 -131 -154 -131c-27 0 -89 5 -128 67c-32 50 -34 108 -34 164c0 19 -3 79 24 135c14 29 50 90 142 90c67 0 99 -35 115 -57c24 -32 32 -64 35 -77c5 -21 8 -46 9 -92zM621 646l-314 -683l-69 31l315 684zM351 458
c1 -57 -3 -113 -35 -164c-16 -26 -51 -69 -129 -69c-73 0 -106 39 -122 61c-9 13 -22 35 -30 70c-5 20 -9 48 -9 97c0 56 5 112 36 161c40 61 102 67 129 67c81 0 131 -51 150 -126c9 -33 10 -63 10 -97zM760 220c0 54 -6 94 -17 116c-15 30 -42 36 -55 36
c-14 0 -41 -6 -56 -37c-14 -29 -17 -89 -17 -118c0 -12 -1 -44 7 -81c2 -9 7 -39 32 -56c5 -3 18 -10 34 -10c11 0 36 5 51 28c15 22 21 64 21 122zM261 453c0 54 -6 94 -17 116c-15 30 -42 36 -55 36c-14 0 -41 -6 -56 -37c-14 -29 -17 -89 -17 -118c0 -12 -1 -44 7 -81
c2 -9 7 -39 32 -56c5 -3 18 -10 34 -10c11 0 36 5 51 28c15 22 21 64 21 122z" />
    <glyph glyph-name="ampersand" unicode="&#x26;" horiz-adv-x="646" 
d="M614 0c-21 -2 -28 -3 -49 -3c-73 0 -100 18 -129 40c-30 -20 -80 -52 -169 -52c-22 0 -98 2 -156 49c-44 37 -68 94 -68 150c0 12 1 39 13 71c26 68 83 102 140 139c-12 19 -30 50 -30 104c0 20 2 71 41 114c31 35 76 50 122 50c35 0 57 -8 70 -13c54 -23 93 -76 93 -137
c0 -47 -27 -124 -133 -161c14 -27 35 -53 52 -79c13 -19 25 -38 40 -55c33 47 34 87 37 111l115 -1c-1 -10 -3 -27 -6 -37c-5 -21 -27 -101 -75 -161c22 -23 37 -31 70 -31c4 0 13 1 22 2v-100zM387 515c0 32 -24 53 -55 53s-54 -22 -53 -53c0 -20 7 -41 30 -75l18 6
c10 3 60 21 60 69zM371 127l-121 177c-6 -3 -20 -11 -35 -22c-43 -34 -51 -62 -51 -90c0 -23 7 -39 12 -47c10 -19 39 -56 98 -56c20 0 58 5 97 38z" />
    <glyph glyph-name="quoteright" unicode="&#x2019;" horiz-adv-x="208" 
d="M170 557c0 -76 -53 -118 -124 -128v56c34 15 53 26 53 68c0 5 0 11 -1 16h-59v137h131v-149z" />
    <glyph glyph-name="parenleft" unicode="(" horiz-adv-x="326" 
d="M333 -105l-44 -59c-11 8 -19 14 -24 18c-44 36 -83 75 -114 115c-77 99 -116 218 -116 347c0 121 38 243 106 339c19 26 40 51 63 75c28 28 42 41 81 70l46 -51c-41 -42 -54 -57 -76 -87c-63 -89 -97 -207 -97 -335c0 -179 66 -342 175 -432z" />
    <glyph glyph-name="parenright" unicode=")" horiz-adv-x="328" 
d="M296 320c0 -121 -38 -242 -107 -339c-38 -54 -79 -95 -144 -145l-46 51c41 42 54 57 76 87c63 89 98 207 98 336c0 179 -65 340 -174 431l44 59c10 -8 18 -14 23 -18c46 -37 82 -74 114 -115c76 -100 116 -217 116 -347z" />
    <glyph glyph-name="asterisk" unicode="*" horiz-adv-x="378" 
d="M358 557l-98 -34l60 -79l-68 -53l-64 83l-58 -83l-70 51l56 80l-96 28l25 83l98 -28v103h87v-104l100 34z" />
    <glyph glyph-name="plus" unicode="+" horiz-adv-x="724" 
d="M631 260h-204v-216h-130v216h-204v107h204v213h130v-213h204v-107z" />
    <glyph glyph-name="comma" unicode="," horiz-adv-x="208" 
d="M170 -14c0 -72 -40 -104 -108 -121c-6 -1 -11 -2 -17 -4v58c46 5 54 42 54 81h-62v137h133v-147v-4z" />
    <glyph glyph-name="hyphen" unicode="-" horiz-adv-x="372" 
d="M330 247h-289v113h289v-113z" />
    <glyph glyph-name="period" unicode="." horiz-adv-x="208" 
d="M169 0h-132v137h132v-137z" />
    <glyph glyph-name="slash" unicode="/" horiz-adv-x="479" 
d="M467 706l-335 -706h-119l335 706h119z" />
    <glyph glyph-name="zero" unicode="0" 
d="M529 340c-1 -164 -37 -247 -100 -298c-58 -48 -121 -51 -148 -51c-36 0 -122 6 -184 88c-39 51 -61 124 -61 257c0 178 44 262 119 311c21 14 66 39 132 39c25 0 86 -3 140 -48c88 -72 102 -194 102 -298zM399 338c1 41 0 108 -15 147c-1 6 -6 23 -15 40
c-10 17 -31 50 -84 50c-14 0 -48 -2 -73 -31c-34 -38 -47 -104 -47 -210c0 -53 4 -92 7 -113c2 -10 10 -74 55 -104c22 -14 47 -15 56 -15c8 0 31 1 50 12c34 19 48 60 51 70c12 38 15 114 15 154z" />
    <glyph glyph-name="one" unicode="1" 
d="M363 0h-123v386c0 37 3 56 -11 71c-13 13 -28 12 -45 12h-109v77h13c43 0 80 1 117 28c36 26 48 60 58 101h100v-675z" />
    <glyph glyph-name="two" unicode="2" 
d="M516 0h-459v98c116 83 200 167 236 207c16 18 73 80 73 165c0 55 -29 101 -89 101c-32 0 -50 -13 -59 -21c-38 -35 -36 -92 -36 -136l-125 12c-1 88 26 146 48 175c22 31 81 85 183 85c80 0 130 -34 153 -55c43 -39 64 -100 63 -157c0 -20 -2 -63 -26 -112
c-40 -84 -118 -143 -186 -201c-24 -20 -47 -40 -72 -57h296v-104z" />
    <glyph glyph-name="three" unicode="3" 
d="M524 199c0 -84 -46 -134 -70 -154c-26 -22 -84 -54 -172 -54c-19 0 -117 2 -175 61c-60 60 -60 148 -60 169h133c-1 -6 -4 -28 1 -47c7 -28 32 -74 103 -74c10 0 32 1 55 13c48 25 51 79 51 94c0 10 -1 36 -18 60c-24 34 -62 40 -101 39l-32 -1v105c41 0 94 -10 122 31
c14 19 14 41 14 48c0 50 -35 86 -86 86c-15 0 -46 -2 -71 -33c-12 -15 -25 -38 -26 -80l-132 28c7 38 25 132 130 175c45 19 86 21 103 21c25 0 40 -3 51 -5c35 -7 164 -38 164 -174c0 -20 -3 -86 -60 -123c-17 -11 -33 -17 -52 -22c48 -9 79 -38 91 -51
c14 -17 37 -55 37 -112z" />
    <glyph glyph-name="four" unicode="4" 
d="M523 155h-87v-155h-123v155h-296v88l296 432h123v-417h87v-103zM320 526l-174 -268h167z" />
    <glyph glyph-name="five" unicode="5" 
d="M519 241c0 -91 -35 -142 -60 -170c-68 -77 -157 -80 -192 -80c-24 0 -96 1 -155 46c-51 40 -71 90 -75 152l139 9c2 -57 38 -100 97 -99c27 0 46 8 54 13c40 23 56 81 56 123c0 8 -1 29 -8 51c-8 23 -34 76 -104 76c-18 0 -79 -5 -101 -63l-112 7l47 371h375l-10 -113
h-262l-23 -149c8 8 11 12 16 15c43 32 96 35 114 35c29 0 94 -4 147 -63c41 -45 57 -101 57 -161z" />
    <glyph glyph-name="six" unicode="6" 
d="M513 225c0 -59 -16 -113 -55 -158c-25 -28 -78 -76 -172 -76c-23 0 -79 3 -131 40c-64 46 -107 127 -107 287c0 22 0 150 46 242c12 24 27 45 47 64c59 59 127 62 157 62c24 0 90 -3 145 -50c49 -42 58 -95 62 -119l-128 -17c0 13 -1 20 -6 32c-13 29 -42 44 -73 44
c-27 0 -71 -11 -95 -70c-15 -36 -23 -102 -24 -139c10 13 17 21 30 31c18 14 56 37 112 37c24 0 80 -4 130 -50c26 -25 62 -72 62 -160zM387 213c0 24 -5 48 -18 68c-25 39 -62 41 -78 41c-66 0 -101 -50 -101 -110c0 -57 29 -87 49 -98c9 -5 24 -11 49 -11c15 0 51 1 76 34
c12 15 23 36 23 76z" />
    <glyph glyph-name="seven" unicode="7" 
d="M512 567c-24 -29 -46 -60 -67 -92c-57 -89 -90 -165 -120 -265c-20 -69 -34 -139 -40 -210h-165c38 287 189 474 249 559h-305v118h448v-110z" />
    <glyph glyph-name="eight" unicode="8" 
d="M531 195c0 -17 -2 -60 -28 -101c-29 -46 -99 -103 -224 -103c-18 0 -60 1 -106 16c-38 12 -144 59 -144 187c0 33 8 64 24 89c23 37 61 60 87 71c-24 12 -38 25 -46 33c-13 15 -41 55 -41 113c0 44 17 77 25 90c27 43 89 96 208 96c15 0 55 0 96 -14
c37 -12 133 -56 133 -177c0 -92 -58 -126 -88 -141c11 -5 30 -15 51 -35c20 -19 53 -55 53 -124zM384 485c0 11 -1 39 -22 62c-5 5 -14 14 -31 21c-11 4 -23 8 -48 8c-21 0 -35 -3 -43 -6c-22 -7 -59 -27 -59 -85c0 -34 14 -52 24 -62c12 -11 25 -17 30 -19
c20 -8 43 -7 50 -7c6 0 26 0 45 7c20 7 54 29 54 81zM397 199c0 60 -45 84 -64 90c-11 3 -25 7 -49 7c-20 0 -36 -1 -54 -8c-19 -8 -60 -32 -60 -90c0 -39 20 -60 31 -70c16 -13 40 -25 84 -25c60 0 112 30 112 96z" />
    <glyph glyph-name="nine" unicode="9" 
d="M517 365c0 -86 -10 -174 -56 -253c-14 -25 -32 -48 -53 -67c-31 -27 -60 -37 -76 -42c-13 -4 -42 -12 -79 -12c-30 0 -118 5 -171 85c-23 35 -29 71 -32 86l137 19c1 -6 3 -22 10 -37s28 -43 72 -42c15 0 30 3 43 11c54 34 68 132 67 187c-10 -16 -23 -26 -40 -35
c-30 -17 -60 -24 -95 -24c-47 0 -88 12 -125 42c-52 44 -69 104 -69 170c0 16 1 62 20 105c20 46 80 128 209 128c18 0 74 -2 120 -31c12 -8 29 -19 50 -45c14 -18 22 -32 26 -40c23 -43 42 -101 42 -205zM369 459c0 8 1 27 -6 49c-18 59 -65 69 -89 69c-8 0 -26 -2 -44 -12
c-50 -28 -50 -86 -50 -100c0 -18 3 -35 4 -40c5 -21 25 -76 91 -76c60 0 81 44 88 64c4 13 6 31 6 46z" />
    <glyph glyph-name="colon" unicode=":" horiz-adv-x="250" 
d="M210 371h-132v138h132v-138zM210 0h-132v137h132v-137z" />
    <glyph glyph-name="semicolon" unicode=";" horiz-adv-x="250" 
d="M211 371h-133v138h133v-138zM211 -9c0 -85 -48 -112 -126 -131v60c41 5 55 32 55 70v10h-62v137h133v-146z" />
    <glyph glyph-name="less" unicode="&#x3c;" horiz-adv-x="724" 
d="M578 28l-465 229v123l465 228v-124l-346 -162l346 -164v-130z" />
    <glyph glyph-name="equal" unicode="=" horiz-adv-x="724" 
d="M625 351h-526v107h526v-107zM625 148h-526v107h526v-107z" />
    <glyph glyph-name="greater" unicode="&#x3e;" horiz-adv-x="724" 
d="M608 255l-465 -228v124l346 162l-347 164l1 130l465 -229v-123z" />
    <glyph glyph-name="question" unicode="?" 
d="M535 509c0 -62 -26 -114 -74 -153c-12 -10 -25 -18 -38 -27c-55 -38 -66 -53 -66 -119c0 -9 0 -19 1 -28h-118v25c0 42 3 113 28 148c41 59 129 68 129 154c0 56 -52 95 -105 95c-77 0 -118 -59 -118 -131l-121 14c3 32 7 63 19 93c38 97 127 138 227 138
c124 0 236 -74 236 -209zM366 0h-133v137h133v-137z" />
    <glyph glyph-name="at" unicode="@" horiz-adv-x="896" 
d="M827 421c0 -34 -4 -67 -12 -100c-8 -35 -19 -68 -34 -100c-34 -70 -103 -152 -188 -152c-49 0 -81 26 -87 77c-34 -43 -77 -77 -135 -77c-93 0 -135 81 -135 165c0 119 78 286 215 286c52 0 87 -27 110 -72l12 51h79l-33 -154c-10 -45 -28 -125 -28 -168
c0 -16 5 -37 25 -37c21 0 39 19 52 32c57 56 88 169 88 247c0 145 -95 226 -234 226c-218 0 -384 -199 -384 -409c0 -188 136 -293 316 -293c124 0 242 58 329 146l40 -51c-99 -100 -227 -162 -369 -162c-53 0 -111 11 -161 30c-148 58 -224 172 -224 329
c0 257 197 477 460 477c176 0 298 -111 298 -291zM532 349c0 45 -23 95 -75 95c-89 0 -130 -132 -130 -205c0 -34 8 -68 41 -85c9 -5 19 -8 30 -8h4c87 7 130 129 130 203z" />
    <glyph glyph-name="A" unicode="A" horiz-adv-x="646" 
d="M636 0h-141l-41 138h-265l-41 -138h-142l239 706h150zM419 254l-97 325l-98 -325h195z" />
    <glyph glyph-name="B" unicode="B" horiz-adv-x="688" 
d="M643 200c0 -71 -30 -132 -93 -168c-62 -35 -125 -32 -193 -32h-277v706h253c35 0 71 0 106 -3c22 -2 80 -8 126 -57c15 -16 45 -54 45 -113c0 -20 -5 -90 -64 -127c-17 -11 -33 -15 -53 -19c9 -2 31 -6 54 -19c36 -19 96 -66 96 -168zM474 511c0 8 -2 30 -17 49
c-34 42 -96 38 -143 38h-103v-176h46c35 0 70 0 106 2c33 2 65 6 89 32c8 8 22 25 22 55zM508 212c0 20 -6 68 -57 94c-36 18 -83 17 -166 17h-74v-209h148c44 0 94 -3 127 36c9 10 22 28 22 62z" />
    <glyph glyph-name="C" unicode="C" horiz-adv-x="688" 
d="M672 197c-15 -36 -29 -64 -53 -95c-33 -42 -110 -120 -252 -120c-24 0 -81 2 -142 30c-80 38 -188 134 -188 343c0 38 0 139 65 232c34 49 115 137 270 137c135 0 206 -67 238 -112c23 -34 37 -69 49 -106l-131 -34c-1 9 -5 32 -18 56c-27 50 -80 76 -136 75
c-40 0 -68 -12 -82 -19c-52 -26 -112 -94 -112 -226c0 -20 1 -104 42 -167c14 -21 31 -39 51 -52c42 -29 84 -32 103 -32c55 0 96 22 130 64c14 17 25 38 28 43c4 9 7 17 13 35z" />
    <glyph glyph-name="D" unicode="D" horiz-adv-x="708" 
d="M669 347c0 -140 -54 -281 -200 -328c-61 -19 -110 -19 -173 -19h-225v706h253c32 0 71 -2 102 -8c35 -7 111 -30 170 -106c31 -41 73 -120 73 -245zM529 348c0 105 -32 161 -68 193c-12 10 -36 28 -74 38c-34 9 -52 8 -114 8h-70v-468h35c71 0 113 1 145 6
c18 3 68 11 104 55c44 56 42 159 42 168z" />
    <glyph glyph-name="E" unicode="E" horiz-adv-x="625" 
d="M605 0h-527v706h502v-118h-372v-166h341v-114h-341v-189h397v-119z" />
    <glyph glyph-name="F" unicode="F" 
d="M548 588h-336v-176h295v-113h-295v-299h-131v706h467v-118z" />
    <glyph glyph-name="G" unicode="G" horiz-adv-x="750" 
d="M685 0h-113l-1 60c-57 -53 -115 -78 -194 -78c-43 0 -141 6 -226 89c-41 41 -105 129 -105 275c0 90 27 184 83 255c32 40 116 123 259 123c20 0 65 -2 116 -21c46 -18 135 -65 181 -187l-126 -50c-12 34 -49 139 -172 139c-24 0 -80 -4 -127 -51
c-34 -35 -70 -95 -70 -204c0 -29 0 -135 81 -203c35 -29 74 -40 119 -40c70 0 132 34 159 100c6 14 11 31 15 63h-176v116h297v-386z" />
    <glyph glyph-name="H" unicode="H" horiz-adv-x="729" 
d="M649 0h-133v321h-303v-321h-133v706h133v-266h303v266h133v-706z" />
    <glyph glyph-name="I" unicode="I" horiz-adv-x="292" 
d="M210 0h-130v706h130v-706z" />
    <glyph glyph-name="J" unicode="J" horiz-adv-x="396" 
d="M332 170c0 -19 -1 -72 -38 -116c-29 -34 -85 -69 -186 -69c-17 0 -43 0 -82 9v130c36 -8 50 -10 70 -10c32 0 53 9 64 15c46 26 42 83 42 126v451h130v-536z" />
    <glyph glyph-name="K" unicode="K" horiz-adv-x="667" 
d="M665 0h-151l-188 332l-115 -132v-200h-131v706h131v-324l283 324h155l-231 -266z" />
    <glyph glyph-name="L" unicode="L" horiz-adv-x="521" 
d="M495 0h-413v706h133v-586h280v-120z" />
    <glyph glyph-name="M" unicode="M" horiz-adv-x="812" 
d="M733 0h-129l13 580l-153 -580h-119l-153 580l13 -580h-129v706h192l138 -524l136 524h191v-706z" />
    <glyph glyph-name="N" unicode="N" horiz-adv-x="708" 
d="M628 0h-116l-309 495l8 -495h-129v706h119l313 -498l-16 498h130v-706z" />
    <glyph glyph-name="O" unicode="O" horiz-adv-x="771" 
d="M725 353c0 -44 -5 -169 -98 -270c-16 -17 -57 -58 -120 -81c-22 -8 -63 -20 -123 -20c-100 0 -176 33 -242 109c-66 75 -94 163 -94 261c0 23 1 77 21 137c46 141 167 235 318 235c136 0 217 -74 250 -112c37 -42 89 -124 88 -259zM592 339c1 58 -10 120 -42 171
c-37 60 -93 93 -164 93c-44 0 -76 -14 -90 -21c-50 -27 -112 -93 -112 -225c0 -27 1 -157 100 -222c43 -28 86 -30 104 -30c14 0 46 1 81 17c52 24 120 84 123 217z" />
    <glyph glyph-name="P" unicode="P" horiz-adv-x="625" 
d="M607 471c0 -110 -57 -167 -94 -191c-61 -39 -127 -40 -196 -40h-103v-240h-132v706h238c17 0 34 1 51 0c31 -2 120 -8 183 -82c51 -59 53 -125 53 -153zM471 475c0 22 -5 46 -16 66c-30 52 -89 52 -140 52h-101v-245h95c9 0 19 1 28 1c68 3 98 24 115 52
c7 12 19 38 19 74z" />
    <glyph glyph-name="Q" unicode="Q" horiz-adv-x="771" 
d="M780 99l-37 -127c-7 2 -17 4 -31 9c-25 10 -69 34 -120 78c-83 -72 -189 -77 -223 -77c-132 0 -209 66 -242 104c-37 41 -91 130 -91 267c0 92 25 185 84 257c89 107 203 114 252 114c37 0 130 -3 213 -71c86 -69 125 -182 125 -289c0 -54 -13 -131 -35 -183
c-2 -4 -9 -18 -16 -31c4 -9 9 -15 18 -22c20 -15 63 -31 89 -31c6 0 5 0 14 2zM568 354c0 31 -2 154 -103 216c-14 8 -50 28 -96 28c-28 0 -82 -7 -129 -61c-25 -30 -63 -91 -63 -188c0 -15 1 -47 12 -85c25 -88 94 -156 190 -156c49 0 91 17 124 54c26 29 65 94 65 192z
" />
    <glyph glyph-name="R" unicode="R" horiz-adv-x="646" 
d="M621 0h-151l-139 262h-119v-262h-131v706h289c32 0 127 -3 190 -86c41 -54 43 -115 43 -138c0 -11 -1 -46 -13 -79c-11 -29 -45 -90 -126 -115zM469 483c0 18 -2 60 -44 88c-23 15 -50 21 -106 21h-107v-220h47c77 0 125 0 157 17c20 11 53 37 53 94z" />
    <glyph glyph-name="S" unicode="S" horiz-adv-x="667" 
d="M632 210c0 -64 -20 -113 -69 -155c-85 -72 -199 -73 -231 -73c-42 0 -177 2 -275 105c-12 13 -25 30 -34 46l111 77c31 -46 89 -106 219 -106c6 0 31 0 52 5c15 3 84 22 84 88c0 7 -1 26 -13 42c-24 32 -88 41 -123 49l-84 19c-36 8 -75 16 -107 33
c-33 17 -101 62 -101 164c0 16 2 62 27 104c32 54 109 116 252 116c63 0 187 -10 285 -143l-109 -81c-22 35 -72 105 -183 105c-7 0 -96 1 -125 -54c-6 -11 -8 -21 -8 -32c0 -12 3 -22 9 -32c17 -29 56 -38 121 -52l73 -16c67 -15 141 -35 188 -90c20 -22 41 -54 41 -119z
" />
    <glyph glyph-name="T" unicode="T" 
d="M541 587h-195v-587h-132v587h-192v119h519v-119z" />
    <glyph glyph-name="U" unicode="U" horiz-adv-x="729" 
d="M649 299c0 -81 1 -115 -12 -155c-23 -71 -104 -162 -277 -162c-83 0 -166 20 -224 84c-9 9 -33 38 -45 76c-11 36 -11 69 -11 144v420h133v-434c0 -42 0 -57 7 -78c13 -42 51 -84 145 -84c17 0 114 0 143 80c8 23 9 42 9 89v427h132v-407z" />
    <glyph glyph-name="V" unicode="V" horiz-adv-x="604" 
d="M595 706l-201 -706h-178l-208 706h139l158 -557l154 557h136z" />
    <glyph glyph-name="W" unicode="W" horiz-adv-x="833" 
d="M823 706l-155 -706h-154l-99 491l-102 -491h-154l-147 706h135l96 -538l110 538h123l112 -538l99 538h136z" />
    <glyph glyph-name="X" unicode="X" horiz-adv-x="646" 
d="M639 0h-151l-165 261l-161 -261h-153l237 383l-203 323h152l128 -202l123 202h153l-199 -323z" />
    <glyph glyph-name="Y" unicode="Y" horiz-adv-x="625" 
d="M615 706l-238 -427v-279h-131v279l-236 427h150l153 -292l154 292h148z" />
    <glyph glyph-name="Z" unicode="Z" horiz-adv-x="604" 
d="M575 0h-551v108l386 480h-353v118h518v-112l-371 -475h371v-119z" />
    <glyph glyph-name="bracketleft" unicode="[" horiz-adv-x="285" 
d="M264 -144h-205v923h205v-73h-97v-778h97v-72z" />
    <glyph glyph-name="backslash" unicode="\" horiz-adv-x="479" 
d="M467 0h-119l-335 706h119z" />
    <glyph glyph-name="bracketright" unicode="]" horiz-adv-x="285" 
d="M225 -144h-205v73h97v778h-97v72h205v-923z" />
    <glyph glyph-name="asciicircum" unicode="^" horiz-adv-x="724" 
d="M633 284h-131l-136 308l-138 -308h-136l209 422h126z" />
    <glyph glyph-name="underscore" unicode="_" horiz-adv-x="500" 
d="M510 -222h-520v92h520v-92z" />
    <glyph glyph-name="quoteleft" unicode="&#x2018;" horiz-adv-x="208" 
d="M169 433h-133v150c0 13 0 30 4 42c16 50 71 79 121 84v-59c-46 -5 -54 -41 -54 -80h62v-137z" />
    <glyph glyph-name="a" unicode="a" horiz-adv-x="542" 
d="M500 0h-142l-3 39c-19 -16 -36 -24 -46 -28c-33 -15 -64 -23 -101 -23c-24 0 -114 3 -160 77c-8 13 -23 40 -22 80c0 28 7 84 68 125c41 28 80 34 126 43c74 15 101 21 138 34c0 13 -1 29 -7 41c-10 19 -35 34 -79 34c-46 0 -75 -14 -88 -31c-14 -17 -13 -37 -13 -44
l-122 7c1 22 5 75 54 115c31 26 78 46 165 46c82 0 130 -17 161 -39c21 -15 32 -32 36 -40c13 -26 13 -61 13 -89v-266c0 -38 2 -49 22 -81zM358 194v55c-20 -10 -46 -20 -95 -28c-27 -5 -56 -6 -81 -21c-17 -11 -29 -28 -29 -50c0 -30 22 -59 82 -59c66 0 105 34 116 57
c8 16 7 30 7 46z" />
    <glyph glyph-name="b" unicode="b" horiz-adv-x="583" 
d="M547 253c0 -94 -38 -191 -123 -239c-44 -25 -85 -29 -104 -29c-26 0 -68 5 -115 45c-8 7 -15 14 -22 22v-52h-119v706h119l1 -248c5 5 11 10 16 14c50 38 105 43 127 43c30 0 91 -8 145 -63c30 -31 75 -94 75 -199zM424 255c1 13 0 62 -27 100c-22 32 -59 51 -98 51
c-31 0 -57 -11 -78 -33c-40 -41 -39 -98 -39 -114c0 -49 9 -104 51 -136c10 -7 35 -24 71 -24c19 0 63 6 91 50c26 40 29 95 29 106z" />
    <glyph glyph-name="c" unicode="c" horiz-adv-x="517" 
d="M497 141c-8 -21 -18 -42 -32 -61c-45 -61 -119 -95 -194 -95c-18 0 -59 3 -104 23c-133 61 -143 200 -143 242c0 61 17 120 54 168c24 32 87 97 199 97c32 0 64 -6 93 -18s89 -47 122 -124l-107 -50c-8 27 -23 44 -30 51c-14 14 -38 34 -84 34c-35 0 -63 -12 -86 -39
c-37 -43 -37 -99 -37 -116c0 -26 4 -45 7 -55c15 -58 56 -101 119 -101c86 0 112 76 121 98z" />
    <glyph glyph-name="d" unicode="d" horiz-adv-x="583" 
d="M516 0h-119v48c-5 -5 -9 -11 -14 -16c-19 -18 -60 -47 -125 -47c-17 0 -53 2 -93 21c-54 25 -129 90 -129 234c0 153 83 232 140 258c16 7 45 17 87 17c17 0 53 -1 91 -22c7 -4 13 -7 25 -16c9 -7 16 -16 18 -18v247h119v-706zM396 248c0 32 -5 73 -22 103
c-6 11 -17 24 -26 31c-20 16 -42 22 -67 22c-10 0 -36 -2 -61 -18c-57 -37 -59 -118 -59 -133c0 -74 31 -159 119 -159c32 0 57 10 78 34c31 34 39 75 38 120z" />
    <glyph glyph-name="e" unicode="e" 
d="M535 112c-8 -11 -22 -30 -46 -52c-28 -26 -95 -75 -198 -75c-32 0 -111 4 -179 67c-57 54 -78 123 -78 201c0 42 6 82 22 120c22 50 84 142 229 142c112 0 171 -58 197 -96c23 -35 46 -96 49 -193h-370c2 -15 7 -46 32 -76c17 -21 47 -48 109 -48s98 29 114 46
c4 4 10 12 17 23zM399 314c0 0 -3 24 -10 41c-11 24 -37 64 -102 64c-26 0 -40 -5 -50 -9c-56 -23 -69 -79 -72 -96h234z" />
    <glyph glyph-name="f" unicode="f" horiz-adv-x="313" 
d="M308 415h-109v-415h-120v415h-75v85h75v58c0 2 -1 36 3 58c10 58 51 91 158 91c23 0 45 -2 68 -5v-102c-3 1 -23 3 -38 3c-73 0 -71 -42 -71 -74v-29h109v-85z" />
    <glyph glyph-name="g" unicode="g" horiz-adv-x="583" 
d="M520 89c0 -58 6 -129 -32 -180c-31 -42 -96 -76 -209 -76c-112 0 -167 31 -198 75c-12 18 -21 39 -31 82l132 -1c3 -10 5 -16 12 -25c26 -38 81 -37 90 -37c60 0 91 23 104 47c14 26 13 52 13 108c-56 -50 -126 -53 -151 -53c-30 0 -63 5 -91 18c-53 23 -125 83 -125 220
c0 16 0 63 17 107c34 87 115 141 209 141c17 0 65 -2 106 -32c18 -13 31 -30 35 -36v53h119v-411zM404 266c0 28 -4 45 -8 56c-8 27 -35 86 -116 86c-17 0 -57 -3 -89 -38c-35 -38 -34 -84 -34 -100s0 -59 32 -95c5 -5 16 -16 32 -24c10 -5 30 -13 60 -13c48 0 75 19 89 34
c34 34 34 78 34 94z" />
    <glyph glyph-name="h" unicode="h" horiz-adv-x="583" 
d="M520 0h-118v275c0 40 2 76 -32 105c-10 9 -29 21 -62 21c-41 0 -74 -17 -99 -48c-10 -12 -18 -27 -22 -42s-4 -27 -4 -43v-268h-120v706h120v-257c10 11 22 22 48 37c19 11 55 29 110 29s115 -20 148 -66c31 -44 31 -90 31 -140v-309z" />
    <glyph glyph-name="i" unicode="i" horiz-adv-x="250" 
d="M184 578h-119v121h119v-121zM184 0h-119v500h119v-500z" />
    <glyph glyph-name="j" unicode="j" horiz-adv-x="250" 
d="M185 579h-118v122h118v-122zM185 -41c0 -13 3 -54 -28 -83c-20 -19 -63 -39 -128 -39c-10 0 -19 1 -28 2v109c5 1 29 1 46 12c23 14 20 33 20 75v465h118v-541z" />
    <glyph glyph-name="k" unicode="k" horiz-adv-x="542" 
d="M550 0h-146l-151 224l-70 -69v-155h-119v706h119v-397l195 191h153l-191 -191z" />
    <glyph glyph-name="l" unicode="l" horiz-adv-x="250" 
d="M187 0h-122v706h122v-706z" />
    <glyph glyph-name="m" unicode="m" horiz-adv-x="875" 
d="M813 0h-119v306c0 19 -4 97 -84 97c-19 0 -62 -7 -89 -51c-23 -36 -24 -77 -24 -117v-235h-119v280c0 11 -1 22 -1 33c0 10 0 45 -27 70c-20 18 -45 19 -54 19c-12 0 -38 -3 -63 -24c-49 -42 -50 -112 -50 -168v-210h-120v500h120l1 -56c8 11 11 14 16 18
c17 16 71 53 141 53c57 0 111 -26 139 -76c9 11 19 25 46 43c21 14 56 33 115 33c76 0 144 -33 165 -111c6 -23 7 -43 7 -88v-316z" />
    <glyph glyph-name="n" unicode="n" 
d="M500 0h-118v255c0 39 0 58 -5 77c-14 58 -59 66 -83 66c-13 0 -38 -2 -63 -23c-36 -30 -47 -72 -47 -158v-217h-121v500h121v-59c2 3 12 16 22 26c47 44 115 48 132 48c74 0 117 -38 133 -61c32 -46 29 -109 29 -160v-294z" />
    <glyph glyph-name="o" unicode="o" horiz-adv-x="583" 
d="M549 252c0 -18 -1 -65 -20 -112c-20 -51 -85 -155 -234 -155c-21 0 -64 1 -113 23c-52 23 -147 93 -147 244c0 54 15 94 22 112c21 50 85 151 234 151c19 0 63 -2 110 -23c54 -23 147 -90 148 -240zM424 254c-2 78 -47 153 -135 153c-11 0 -41 -2 -68 -19
c-26 -17 -61 -58 -61 -133c0 -24 2 -45 10 -68c8 -24 43 -92 125 -92c91 0 132 80 129 159z" />
    <glyph glyph-name="p" unicode="p" horiz-adv-x="583" 
d="M548 246c0 -27 -2 -102 -50 -169c-59 -83 -140 -92 -178 -92c-30 0 -82 6 -136 56v-204h-120v663h120v-45c20 21 61 60 137 60c32 0 103 -6 160 -73c26 -31 67 -96 67 -196zM425 252c0 9 0 37 -9 64c-17 49 -61 84 -114 84c-31 0 -52 -12 -62 -18
c-26 -18 -56 -55 -58 -129c0 -20 2 -40 7 -59c15 -56 56 -95 116 -95c21 0 44 6 62 18c29 19 58 59 58 135z" />
    <glyph glyph-name="q" unicode="q" 
d="M508 -163h-119l-1 210c-23 -24 -62 -62 -142 -62c-32 0 -103 4 -159 70c-28 33 -62 90 -62 190c0 18 1 61 16 107c30 91 110 163 210 163c40 0 83 -13 113 -40c11 -10 16 -16 25 -28v53h119v-663zM389 249c0 34 -7 68 -25 96c-5 7 -14 21 -31 33c-11 8 -32 20 -65 20
c-11 0 -39 -1 -65 -20s-55 -59 -55 -132c0 -75 34 -151 121 -151c12 0 41 2 68 22c26 19 53 60 52 132z" />
    <glyph glyph-name="r" unicode="r" horiz-adv-x="354" 
d="M339 388c-25 0 -121 0 -150 -92c-9 -28 -9 -53 -9 -82v-214h-116v500h116v-71c8 15 18 30 30 41c40 39 105 41 119 41h10v-123z" />
    <glyph glyph-name="s" unicode="s" horiz-adv-x="521" 
d="M487 156c0 -24 -6 -47 -17 -68c-24 -46 -86 -103 -208 -103c-94 0 -161 32 -192 51c-17 11 -33 24 -48 39l90 73c4 -5 10 -14 23 -25c43 -37 107 -39 121 -39c30 0 65 7 85 30c8 8 13 19 13 29c0 4 -1 12 -8 21c-13 18 -29 19 -66 27c-33 7 -66 11 -98 19
c-22 6 -138 34 -138 142c0 38 16 66 23 77c25 39 84 86 192 86c39 0 140 -6 215 -93l-85 -79c-10 21 -23 33 -31 40c-31 27 -64 36 -105 36c-5 0 -39 0 -61 -15c-18 -12 -22 -28 -22 -37c1 -17 13 -29 16 -31c13 -10 46 -18 86 -25c27 -5 54 -9 81 -15s57 -15 79 -31
c18 -13 55 -48 55 -109z" />
    <glyph glyph-name="t" unicode="t" horiz-adv-x="313" 
d="M304 4c-16 -2 -45 -8 -86 -8c-66 0 -100 16 -120 40c-10 12 -14 24 -15 29c-5 16 -6 51 -6 95v255h-73v85h73v178h120v-178h107v-85h-107v-227c0 -20 -3 -58 12 -74c14 -16 43 -15 46 -15c17 0 34 2 49 6v-101z" />
    <glyph glyph-name="u" unicode="u" horiz-adv-x="583" 
d="M517 0h-120l-1 51c-25 -23 -74 -63 -161 -63c-83 0 -124 36 -144 66c-32 47 -29 104 -29 158v288h121v-270c0 -41 -2 -90 40 -114c16 -10 39 -15 58 -15c58 0 87 38 97 56c20 38 19 92 19 131v212h120v-500z" />
    <glyph glyph-name="v" unicode="v" horiz-adv-x="479" 
d="M468 500l-165 -500h-128l-162 500h124l104 -344l102 344h125z" />
    <glyph glyph-name="w" unicode="w" horiz-adv-x="750" 
d="M735 500l-150 -500h-119l-90 319l-95 -319h-119l-145 500h125l87 -342l93 342h107l92 -342l89 342h125z" />
    <glyph glyph-name="x" unicode="x" horiz-adv-x="500" 
d="M494 0h-138l-104 158l-100 -158h-143l172 268l-152 232h141l82 -126l79 126h143l-151 -232z" />
    <glyph glyph-name="y" unicode="y" horiz-adv-x="479" 
d="M470 500l-127 -436c-18 -62 -44 -168 -91 -206c-31 -25 -63 -30 -102 -30c-38 0 -52 3 -71 7v104c48 -6 75 0 93 15c15 14 19 29 21 36l-181 510h129l112 -373l94 373h123z" />
    <glyph glyph-name="z" unicode="z" horiz-adv-x="500" 
d="M459 0h-428v92l270 301h-243v107h401v-93l-264 -301h264v-106z" />
    <glyph glyph-name="braceleft" unicode="{" horiz-adv-x="300" 
d="M288 -148h-52c-59 0 -85 8 -108 35c-11 13 -18 27 -22 43c-6 23 -7 38 -7 84v5l1 155c0 40 -4 59 -11 72c-12 21 -32 30 -75 34v75c30 2 41 5 56 14c23 14 30 34 30 92l-1 154v6c0 45 1 60 7 83c4 16 11 31 22 43c23 26 50 35 107 35h52l1 -72h-17c-23 0 -37 -4 -47 -15
c-5 -7 -9 -14 -11 -22c-4 -15 -4 -24 -4 -71v-150c0 -83 -17 -110 -82 -136c23 -6 32 -11 46 -24c27 -23 36 -49 36 -109v-151c0 -46 0 -56 4 -70c7 -25 27 -38 61 -38h14v-72z" />
    <glyph glyph-name="bar" unicode="|" horiz-adv-x="247" 
d="M177 -143h-109v922h109v-922z" />
    <glyph glyph-name="braceright" unicode="}" horiz-adv-x="300" 
d="M286 279c-31 -3 -41 -5 -56 -14c-23 -14 -30 -34 -30 -92l1 -154v-6c0 -45 -2 -61 -7 -83c-4 -16 -12 -31 -23 -43c-22 -26 -49 -35 -106 -35h-53v72l17 -1c22 -1 36 5 46 16c6 7 10 14 12 22c4 15 4 24 4 71v150c0 82 17 110 82 136c-23 6 -32 10 -47 23
c-27 24 -35 50 -35 110v151c0 45 -1 56 -5 70c-6 25 -27 38 -60 38h-14v72h52c59 0 84 -9 107 -35c11 -13 19 -28 23 -43c5 -23 7 -38 7 -84v-5l-1 -155c0 -40 2 -59 10 -73c11 -20 33 -29 76 -33v-75z" />
    <glyph glyph-name="asciitilde" unicode="~" horiz-adv-x="724" 
d="M653 310c-31 -38 -46 -52 -73 -70c-31 -20 -60 -29 -92 -29s-61 9 -121 38l-35 17c-46 22 -75 30 -104 30c-12 0 -23 -2 -33 -6c-23 -9 -36 -22 -69 -61l-10 -12l-44 101c25 34 34 45 53 61c30 26 66 39 105 39c34 0 61 -8 127 -38l51 -23c46 -21 60 -25 79 -25
c22 0 47 9 66 23c19 13 29 23 55 55z" />
    <glyph glyph-name="exclamdown" unicode="&#xa1;" horiz-adv-x="250" 
d="M171 568h-131v138h131v-138zM171 0h-131v271l38 260h56l37 -260v-271z" />
    <glyph glyph-name="cent" unicode="&#xa2;" horiz-adv-x="500" 
d="M494 143c-9 -22 -15 -37 -30 -60c-43 -63 -102 -82 -123 -87c-11 -2 -19 -3 -29 -5v-99h-78v99c-200 28 -212 224 -212 264c0 122 62 236 213 267v99h78v-99c110 -13 150 -89 177 -138l-106 -50c-15 36 -36 61 -51 71c-4 3 -12 6 -22 8v-308c61 17 78 79 81 93zM233 109
v305c-10 -5 -23 -11 -32 -19c-50 -40 -56 -93 -56 -135c0 -48 12 -129 88 -151z" />
    <glyph glyph-name="sterling" unicode="&#xa3;" horiz-adv-x="625" 
d="M594 232c0 -11 0 -39 -4 -71c-1 -8 -14 -96 -60 -138c-15 -13 -43 -31 -89 -31c-36 0 -69 13 -78 16c-23 9 -44 21 -65 31c-43 -24 -79 -47 -129 -47c-9 0 -32 1 -55 11c-42 18 -65 59 -65 103c0 8 1 34 14 57c19 35 60 52 98 52c15 0 40 -3 73 -14c2 7 3 13 3 16
c0 8 -2 28 -15 46c-4 5 -8 8 -13 12h-130v106h80c-15 19 -42 58 -42 121c0 76 37 116 60 135c26 21 83 58 169 58c18 0 64 -2 112 -25c86 -41 109 -113 109 -204c0 -11 0 -22 -1 -32h-130c2 9 5 22 5 42c0 16 -2 30 -7 44c-15 38 -52 63 -92 63c-8 0 -22 0 -40 -8
c-18 -9 -53 -32 -53 -85c0 -54 41 -99 49 -109h123v-106h-78c5 -37 6 -51 6 -72c0 -24 -1 -36 -6 -60c20 -14 43 -29 69 -29c13 0 22 3 31 13c22 22 22 54 22 81v24h129zM210 106c-17 13 -27 17 -39 17c-20 0 -27 -15 -27 -23c0 -7 8 -22 28 -21c10 0 28 5 38 27z" />
    <glyph glyph-name="yen" unicode="&#xa5;" horiz-adv-x="604" 
d="M601 686l-145 -256h84v-99h-142l-34 -61h176v-99h-176v-171h-129v171h-177v99h176l-31 61h-145v99h89l-144 256h149l149 -285l153 285h147z" />
    <glyph glyph-name="florin" unicode="&#x192;" horiz-adv-x="437" 
d="M418 680l-12 -101c-14 1 -24 2 -39 2c-66 0 -68 -31 -74 -82l-3 -25h104l-10 -85h-104l-45 -390c-10 -88 -19 -136 -73 -164c-11 -6 -38 -15 -69 -15s-71 8 -78 11l12 106c8 -2 17 -5 35 -5c10 0 17 1 21 4c20 13 24 44 29 87l43 366h-77l10 85h77l3 20
c12 80 14 127 52 159c25 22 58 33 116 33c25 0 50 -2 74 -5z" />
    <glyph glyph-name="section" unicode="&#xa7;" horiz-adv-x="646" 
d="M604 330c0 -72 -44 -130 -107 -160c25 -27 41 -54 41 -92c0 -103 -112 -143 -198 -143c-83 0 -181 29 -249 79l58 82c55 -36 120 -61 187 -61c27 0 68 8 68 42c0 70 -361 102 -361 299c0 73 48 115 106 149c-25 22 -39 54 -39 88c0 104 105 146 193 146
c82 0 169 -24 237 -67l-56 -84c-53 24 -109 51 -168 51c-20 0 -72 -5 -72 -33s38 -41 59 -50l93 -40c92 -40 208 -88 208 -206zM470 308c0 16 -4 31 -13 43c-34 47 -173 93 -228 116c-31 -11 -59 -35 -59 -71c0 -48 48 -69 85 -86c19 -9 38 -17 56 -25
c39 -18 77 -36 115 -55c24 18 44 48 44 78z" />
    <glyph glyph-name="currency" unicode="&#xa4;" horiz-adv-x="666" 
d="M635 569l-78 -77c36 -57 48 -97 48 -153c0 -57 -14 -101 -49 -155l78 -78l-71 -70l-78 78c-60 -36 -95 -47 -153 -47c-59 0 -99 12 -153 48l-78 -77l-70 70l78 77c-34 49 -49 95 -49 154s13 101 49 154l-77 76l70 70l77 -76c48 34 96 49 155 49c57 0 103 -15 152 -49
l78 77zM497 337c0 95 -71 168 -164 168s-164 -72 -164 -165c0 -94 72 -166 166 -166c90 0 162 72 162 163z" />
    <glyph glyph-name="quotesingle" unicode="'" horiz-adv-x="166" 
d="M131 743l-30 -299h-35l-31 299h96z" />
    <glyph glyph-name="quotedblleft" unicode="&#x201c;" horiz-adv-x="375" 
d="M338 436h-130v152c0 42 8 69 42 95c24 18 52 26 81 28v-53c-49 -19 -55 -29 -55 -84h62v-138zM167 436h-130v145c0 83 41 118 121 134v-56c-51 -21 -51 -33 -51 -85h60v-138z" />
    <glyph glyph-name="guillemotleft" unicode="&#xab;" horiz-adv-x="437" 
d="M383 132l-143 112v141l143 114v-114l-86 -71l86 -70v-112zM201 133l-142 111v141l142 112v-112l-88 -72l88 -69v-111z" />
    <glyph glyph-name="guilsinglleft" unicode="&#x2039;" horiz-adv-x="250" 
d="M198 132l-142 112v141l142 114v-114l-86 -71l86 -70v-112z" />
    <glyph glyph-name="guilsinglright" unicode="&#x203a;" horiz-adv-x="250" 
d="M192 242l-142 -113v113l86 72l-86 69v113l142 -113v-141z" />
    <glyph glyph-name="endash" unicode="&#x2013;" horiz-adv-x="610" 
d="M569 247h-528v113h528v-113z" />
    <glyph glyph-name="dagger" unicode="&#x2020;" horiz-adv-x="542" 
d="M503 366h-168v-410h-126v410h-169v112h169v228h126v-228h168v-112z" />
    <glyph glyph-name="daggerdbl" unicode="&#x2021;" horiz-adv-x="500" 
d="M472 427h-162v-197h159v-102h-161v-175h-118v176h-161v101h163v198h-163v102h163v176h119v-176h161v-103z" />
    <glyph glyph-name="periodcentered" unicode="&#xb7;" horiz-adv-x="219" 
d="M176 217h-133v146h133v-146z" />
    <glyph glyph-name="paragraph" unicode="&#xb6;" horiz-adv-x="640" 
d="M537 636h-35v-803h-74v803h-128v-803h-74v478c-25 5 -31 7 -44 12c-69 27 -111 95 -111 179c0 60 20 112 59 149c18 17 39 30 63 39c31 12 56 16 111 16h233v-70z" />
    <glyph glyph-name="bullet" unicode="&#x2022;" horiz-adv-x="333" 
d="M286 233h-239v238h239v-238z" />
    <glyph glyph-name="quotesinglbase" unicode="&#x201a;" horiz-adv-x="208" 
d="M170 -14c0 -72 -40 -104 -108 -121c-6 -1 -11 -2 -17 -4v58c46 5 54 42 54 81h-62v137h133v-147v-4z" />
    <glyph glyph-name="quotedblbase" unicode="&#x201e;" horiz-adv-x="375" 
d="M338 -5c0 -83 -39 -122 -122 -137v56c36 12 52 27 52 65v21h-60v139h130v-144zM167 -7c0 -17 0 -40 -6 -55c-18 -45 -69 -75 -117 -75v53c38 10 55 32 55 70c0 5 -1 9 -1 14h-61v139h130v-146z" />
    <glyph glyph-name="quotedblright" unicode="&#x201d;" horiz-adv-x="375" 
d="M338 563c0 -84 -40 -122 -122 -137v56c51 16 52 37 52 85h-60v139h130v-143zM167 551c0 -41 -9 -67 -42 -92c-22 -17 -52 -29 -81 -28v53c38 10 55 31 55 69c0 5 -1 9 -1 14h-61v139h130v-155z" />
    <glyph glyph-name="guillemotright" unicode="&#xbb;" horiz-adv-x="437" 
d="M377 242l-142 -111v111l87 73l-87 68v112l142 -112v-141zM195 242l-143 -113v113l86 72l-86 69v113l143 -113v-141z" />
    <glyph glyph-name="ellipsis" unicode="&#x2026;" horiz-adv-x="1000" 
d="M890 0h-113v111h113v-111zM556 0h-112v111h112v-111zM222 0h-112v111h112v-111z" />
    <glyph glyph-name="perthousand" unicode="&#x2030;" horiz-adv-x="1250" 
d="M1225 219c0 -18 0 -30 -2 -48c-12 -135 -85 -176 -156 -178c-46 -2 -76 13 -95 27c-50 35 -73 96 -73 192c0 162 64 237 166 237c96 0 160 -67 160 -220v-10zM850 223c0 -43 -2 -86 -17 -126c-17 -45 -56 -103 -144 -104c-178 -2 -164 214 -164 220c0 8 -2 58 7 97
s42 137 155 139c9 0 59 2 99 -34c60 -54 63 -138 64 -192zM621 646l-314 -683l-69 31l315 684zM351 458c0 -42 -1 -84 -15 -123c-16 -47 -55 -109 -147 -110c-120 -1 -149 103 -157 143c-7 33 -6 76 -6 84c0 57 3 156 81 206c15 10 43 22 80 23c101 1 162 -70 164 -223z
M1136 218c0 82 -11 153 -71 155c-77 2 -74 -116 -74 -149c0 -17 0 -34 1 -51c4 -68 29 -104 74 -102c75 3 70 112 70 147zM760 220c0 23 0 47 -4 72c0 3 -7 80 -68 80c-8 0 -33 -3 -52 -29c-14 -20 -21 -70 -21 -127c0 -79 13 -146 72 -146c78 0 73 115 73 150zM261 457
c0 24 0 49 -5 75c-10 55 -39 74 -69 73c-59 -1 -71 -73 -71 -154c0 -35 -3 -150 74 -148c76 1 71 119 71 154z" />
    <glyph glyph-name="questiondown" unicode="&#xbf;" 
d="M328 569h-133v137h133v-137zM508 219c-1 -15 -4 -64 -26 -108c-24 -50 -85 -123 -218 -123c-30 0 -59 4 -88 13c-89 27 -149 100 -149 196c0 67 29 118 80 158c20 15 41 27 60 43c23 19 39 40 39 98c0 8 0 14 -3 29h118c1 -54 -2 -90 -6 -111c-8 -45 -21 -65 -36 -81
c-22 -22 -45 -31 -69 -50c-11 -9 -46 -38 -46 -85c0 -20 7 -34 10 -41c19 -36 58 -55 98 -55c14 0 57 3 85 38c11 14 28 47 30 94z" />
    <glyph glyph-name="grave" unicode="`" horiz-adv-x="271" 
d="M236 573h-89l-112 133h149z" />
    <glyph glyph-name="acute" unicode="&#xb4;" horiz-adv-x="271" 
d="M235 706l-108 -133h-91l50 133h149z" />
    <glyph glyph-name="circumflex" unicode="&#x2c6;" horiz-adv-x="271" 
d="M306 572h-123l-47 67l-50 -67h-121l111 134h118z" />
    <glyph glyph-name="tilde" unicode="&#x2dc;" horiz-adv-x="271" 
d="M316 706c-4 -16 -6 -34 -11 -51c-6 -16 -29 -72 -91 -72c-29 0 -59 12 -84 22c-31 12 -45 17 -60 17c-2 0 -10 0 -16 -4c-13 -6 -18 -21 -20 -34h-78c0 4 3 29 8 46c6 16 29 80 96 80c20 0 41 -8 81 -20c0 0 37 -17 59 -17c11 0 26 6 31 17c4 8 2 6 6 16h79z" />
    <glyph glyph-name="macron" unicode="&#xaf;" horiz-adv-x="271" 
d="M306 586h-341v90h341v-90z" />
    <glyph glyph-name="dieresis" unicode="&#xa8;" horiz-adv-x="271" 
d="M293 587h-115v119h115v-119zM91 587h-113v119h113v-119z" />
    <glyph glyph-name="cedilla" unicode="&#xb8;" horiz-adv-x="271" 
d="M236 -110c0 -20 -10 -33 -14 -38c-23 -27 -68 -38 -141 -38c-14 0 -27 0 -41 1l1 31c2 0 6 -2 12 -1c10 -1 38 2 47 4c2 1 21 6 21 22c-1 22 -31 24 -66 24c-7 0 -14 -1 -20 -2v15l100 104h45l-45 -58c29 2 61 -9 68 -12c20 -10 33 -30 33 -52z" />
    <glyph glyph-name="emdash" unicode="&#x2014;" horiz-adv-x="893" 
d="M852 247h-811v113h811v-113z" />
    <glyph glyph-name="AE" unicode="&#xc6;" horiz-adv-x="1042" 
d="M1018 0h-516v165h-248l-94 -165h-154l418 706h579v-118h-368v-168h320v-116h-320v-184h383v-120zM502 284v323l-181 -323h181z" />
    <glyph glyph-name="ordfeminine" unicode="&#xaa;" horiz-adv-x="333" 
d="M302 426h-69c-3 9 -6 13 -7 22c-39 -26 -75 -28 -89 -28c-50 0 -98 31 -98 90c0 31 15 51 28 62c32 26 123 33 155 46v5c0 22 -11 37 -47 37c-41 0 -53 -16 -53 -41l-70 5c0 3 3 29 15 46c19 27 52 43 104 44c28 0 88 -5 111 -44c4 -6 8 -19 8 -35v-165
c0 -19 1 -25 12 -44zM220 530v30c-17 -5 -29 -8 -46 -12c-15 -3 -27 -3 -41 -10c-6 -3 -21 -11 -21 -28s14 -29 40 -29c1 0 68 -2 68 49z" />
    <glyph glyph-name="Oslash" unicode="&#xd8;" horiz-adv-x="771" 
d="M740 616l-66 -59c20 -37 52 -102 52 -205c0 -19 -1 -63 -14 -112c-28 -106 -101 -202 -208 -239c-22 -8 -62 -19 -120 -19c-138 0 -200 64 -240 107l-64 -56l-57 66l70 62c-10 17 -15 28 -19 36c-12 28 -28 78 -28 153c0 181 90 274 151 316c32 23 95 58 193 58
c125 0 195 -62 229 -96l62 55zM525 545c-20 20 -61 61 -136 60c-18 0 -54 -3 -94 -25c-77 -43 -117 -131 -117 -216c0 -40 9 -74 13 -88c4 -12 6 -15 9 -21zM594 346c0 18 -1 69 -23 120l-327 -289c17 -27 56 -74 139 -74c15 0 53 2 90 21c46 23 121 90 121 222z" />
    <glyph glyph-name="OE" unicode="&#x152;" horiz-adv-x="1104" 
d="M1077 0h-526l-1 25c-31 -17 -85 -43 -171 -43c-38 0 -121 4 -202 69c-50 40 -130 128 -130 288c0 14 1 42 7 78c8 50 38 187 174 263c49 28 107 44 163 44c80 0 134 -32 160 -48v30h504v-120h-373v-169h325v-114h-325v-184h395v-119zM551 188v267c0 38 3 50 -7 69
c-28 52 -92 75 -149 75c-17 0 -55 -2 -95 -25c-53 -30 -112 -96 -112 -233c0 -57 9 -107 42 -155c22 -31 72 -88 171 -87c62 0 98 22 119 40c24 20 28 35 31 49z" />
    <glyph glyph-name="ordmasculine" unicode="&#xba;" horiz-adv-x="333" 
d="M309 563c0 -17 -3 -34 -8 -51c-13 -41 -54 -97 -136 -97c-87 0 -141 70 -141 149c0 81 54 149 141 150c90 2 145 -67 144 -151zM238 567c0 35 -16 83 -67 85c-31 1 -74 -22 -74 -87c0 -11 2 -22 4 -32c5 -19 21 -55 66 -55c33 0 71 25 71 89z" />
    <glyph glyph-name="ae" unicode="&#xe6;" horiz-adv-x="875" 
d="M846 227h-365c4 -46 18 -72 32 -89c14 -19 44 -46 102 -46c17 0 53 2 88 32c15 13 31 33 33 36l95 -59c-33 -40 -97 -116 -234 -116c-31 0 -76 2 -136 38c-12 7 -27 17 -50 36c-10 -9 -21 -17 -33 -25c-66 -48 -132 -49 -162 -49c-98 0 -141 34 -165 74
c-20 34 -22 63 -22 78c0 21 4 62 41 99c34 34 85 54 182 74c41 8 73 14 112 31c-2 27 -6 49 -27 67c-20 16 -43 20 -67 20c-8 0 -41 0 -68 -17c-12 -8 -18 -17 -21 -22c-11 -17 -11 -36 -11 -42h-116c2 21 6 65 42 106c27 32 73 62 164 62c14 0 82 2 131 -29
c14 -9 21 -15 43 -36c28 25 72 65 163 65c25 0 89 -1 148 -45c52 -39 96 -105 101 -243zM704 313c-12 59 -49 105 -113 105c-16 0 -50 -2 -79 -33c-25 -28 -29 -59 -30 -72h222zM364 240c-52 -21 -83 -23 -137 -35c-9 -2 -71 -13 -71 -66c0 -29 21 -66 85 -66
c58 0 89 33 101 51c17 25 20 56 22 116z" />
    <glyph glyph-name="oslash" unicode="&#xf8;" horiz-adv-x="583" 
d="M565 432l-56 -45c15 -27 38 -66 38 -139c0 -32 -4 -110 -64 -180c-32 -38 -87 -83 -201 -83c-77 0 -123 22 -176 77l-53 -42l-44 59l56 45c-14 24 -35 63 -35 129c0 19 1 54 17 98c20 54 85 164 244 164c97 0 147 -41 177 -68l51 41zM380 376c-5 6 -6 8 -16 16
c-20 16 -51 26 -77 25c-19 0 -64 -5 -100 -45c-39 -44 -39 -97 -39 -116c0 -13 1 -31 8 -60zM429 244c0 36 -6 53 -12 69l-225 -180c13 -16 43 -49 100 -49c51 0 84 29 97 43c41 43 40 97 40 117z" />
    <glyph glyph-name="oe" unicode="&#x153;" horiz-adv-x="917" 
d="M885 221h-359c1 -7 3 -28 11 -47c20 -50 64 -82 120 -82c28 0 80 10 120 68l97 -59c-21 -30 -41 -46 -52 -55c-55 -44 -102 -61 -173 -61c-58 0 -100 10 -145 47c-22 19 -32 32 -40 43c-13 -18 -24 -30 -43 -45c-43 -33 -88 -45 -142 -45c-91 0 -140 35 -169 62
c-74 70 -76 166 -76 198c0 79 23 151 82 206c64 61 136 64 167 64c97 0 151 -48 177 -74c73 66 130 74 176 74c33 0 66 -6 97 -18c38 -16 106 -58 136 -159c9 -30 13 -57 16 -117zM746 306c0 0 -6 26 -13 42c-9 18 -36 63 -98 63c-21 0 -69 -7 -95 -58
c-8 -15 -11 -30 -14 -47h220zM411 246c0 11 -1 40 -12 69c-19 53 -61 88 -118 88c-87 0 -126 -78 -126 -154c0 -8 0 -27 5 -48c6 -27 32 -108 123 -107c57 0 86 32 98 49c15 20 30 49 30 103z" />
    <glyph glyph-name="germandbls" unicode="&#xdf;" 
d="M527 219c0 -126 -66 -227 -202 -227c-7 0 -60 1 -95 16v116c4 -2 7 -5 11 -7c8 -4 30 -15 57 -15c29 0 54 14 73 35c30 35 30 76 30 91c0 14 -1 68 -40 103c-38 35 -104 35 -114 35c-6 0 -12 0 -17 -1v90c11 -1 76 -12 115 29c18 20 20 44 20 53c0 6 -1 24 -11 39
c-10 16 -31 35 -74 35c-9 0 -31 -1 -52 -13c-46 -25 -42 -79 -42 -123v-475h-121v494c0 52 0 70 8 96c26 90 120 128 205 128c15 0 45 0 81 -11c78 -23 144 -80 143 -166c0 -41 -16 -77 -47 -103c-19 -17 -34 -22 -43 -25c18 -9 37 -18 53 -31c28 -25 62 -76 62 -163z" />
    <glyph glyph-name="Ydieresis" unicode="&#x178;" horiz-adv-x="625" 
d="M471 772h-114v123h114v-123zM269 772h-112v123h112v-123zM615 706l-238 -427v-279h-131v279l-236 427h150l153 -292l154 292h148z" />
    <glyph glyph-name="trademark" unicode="&#x2122;" horiz-adv-x="687" 
d="M628 374h-66l1 263l-68 -263h-58l-70 267l4 -267h-68l1 332h106l57 -233l55 233h105zM262 648h-88v-274h-72v274h-94v58h254v-58z" />
    <glyph glyph-name="scaron" unicode="&#x161;" horiz-adv-x="521" 
d="M431 706l-112 -134h-114l-113 134h121l49 -64l49 64h120zM487 154c-1 -83 -78 -170 -229 -169c-71 1 -167 21 -236 90l89 73c42 -51 98 -64 144 -64c56 -1 102 26 99 61c-1 19 -16 28 -23 32c-15 10 -132 29 -147 33c-113 28 -140 92 -140 143c1 78 71 160 210 162
c70 1 154 -18 220 -93l-85 -79c-20 40 -61 76 -136 76c-48 0 -82 -19 -83 -50c-1 -36 37 -46 87 -56c42 -8 136 -17 178 -50c53 -41 52 -98 52 -109z" />
    <glyph glyph-name="Scaron" unicode="&#x160;" horiz-adv-x="667" 
d="M494 895l-100 -124h-118l-104 124h120l42 -57l43 57h117zM632 213c2 -155 -133 -204 -188 -218c-21 -5 -61 -13 -113 -13c-20 0 -156 -3 -258 90c-28 25 -46 53 -50 61l111 77c9 -12 7 -12 22 -29c37 -41 98 -77 195 -77c87 0 138 35 138 92c0 20 -5 37 -25 54
c-24 22 -86 32 -111 38l-84 19c-33 8 -208 27 -208 197c0 12 0 56 24 98c41 73 128 122 256 122c83 0 180 -23 260 -113c9 -10 15 -19 24 -30l-109 -81c-7 10 -11 19 -27 37c-29 33 -76 68 -153 68c-80 1 -136 -35 -136 -86c1 -56 55 -67 130 -84l73 -16c7 -2 49 -10 81 -22
c134 -48 147 -132 148 -184z" />
    <glyph glyph-name="ydieresis" unicode="&#xff;" horiz-adv-x="479" 
d="M398 587h-114v119h114v-119zM196 587h-112v119h112v-119zM470 500l-127 -436c-18 -62 -44 -168 -91 -206c-31 -25 -63 -30 -102 -30c-38 0 -52 3 -71 7v104c48 -6 75 0 93 15c15 14 19 29 21 36l-181 510h129l112 -373l94 373h123z" />
    <glyph glyph-name="thorn" unicode="&#xfe;" horiz-adv-x="583" 
d="M548 246c0 -125 -74 -261 -227 -261c-69 0 -108 30 -137 56v-204h-120v869h120v-251c30 30 69 62 141 60c155 -3 223 -148 223 -269zM425 249c1 108 -65 149 -120 151c-54 1 -121 -38 -123 -147c-1 -26 4 -52 13 -76c21 -54 63 -78 109 -78c58 0 120 41 121 150z" />
    <glyph glyph-name="yacute" unicode="&#xfd;" horiz-adv-x="479" 
d="M386 706l-108 -133h-90l50 133h148zM470 500l-127 -436c-18 -62 -44 -168 -91 -206c-31 -25 -63 -30 -102 -30c-38 0 -52 3 -71 7v104c48 -6 75 0 93 15c15 14 19 29 21 36l-181 510h129l112 -373l94 373h123z" />
    <glyph glyph-name="udieresis" unicode="&#xfc;" horiz-adv-x="583" 
d="M448 587h-114v119h114v-119zM246 587h-112v119h112v-119zM517 0h-120l-1 51c-25 -23 -74 -63 -161 -63c-83 0 -124 36 -144 66c-32 47 -29 104 -29 158v288h121v-270c0 -41 -2 -90 40 -114c16 -10 39 -15 58 -15c58 0 87 38 97 56c20 38 19 92 19 131v212h120v-500z" />
    <glyph glyph-name="ucircumflex" unicode="&#xfb;" horiz-adv-x="583" 
d="M462 572h-122l-48 67l-49 -67h-121l111 134h118zM517 0h-120l-1 51c-25 -23 -74 -63 -161 -63c-83 0 -124 36 -144 66c-32 47 -29 104 -29 158v288h121v-270c0 -41 -2 -90 40 -114c16 -10 39 -15 58 -15c58 0 87 38 97 56c20 38 19 92 19 131v212h120v-500z" />
    <glyph glyph-name="uacute" unicode="&#xfa;" horiz-adv-x="583" 
d="M438 706l-108 -133h-90l50 133h148zM517 0h-120l-1 51c-25 -23 -74 -63 -161 -63c-83 0 -124 36 -144 66c-32 47 -29 104 -29 158v288h121v-270c0 -41 -2 -90 40 -114c16 -10 39 -15 58 -15c58 0 87 38 97 56c20 38 19 92 19 131v212h120v-500z" />
    <glyph glyph-name="ugrave" unicode="&#xf9;" horiz-adv-x="583" 
d="M348 573h-90l-110 133h148zM517 0h-120l-1 51c-25 -23 -74 -63 -161 -63c-83 0 -124 36 -144 66c-32 47 -29 104 -29 158v288h121v-270c0 -41 -2 -90 40 -114c16 -10 39 -15 58 -15c58 0 87 38 97 56c20 38 19 92 19 131v212h120v-500z" />
    <glyph glyph-name="divide" unicode="&#xf7;" horiz-adv-x="724" 
d="M423 429h-122v135h122v-135zM645 257h-566v112h566v-112zM422 62h-121v134h121v-134z" />
    <glyph glyph-name="odieresis" unicode="&#xf6;" horiz-adv-x="583" 
d="M451 587h-114v119h114v-119zM250 587h-113v119h113v-119zM549 252c0 -18 -1 -65 -20 -112c-20 -51 -85 -155 -234 -155c-21 0 -64 1 -113 23c-52 23 -147 93 -147 244c0 54 15 94 22 112c21 50 85 151 234 151c19 0 63 -2 110 -23c54 -23 147 -90 148 -240zM424 254
c-2 78 -47 153 -135 153c-11 0 -41 -2 -68 -19c-26 -17 -61 -58 -61 -133c0 -24 2 -45 10 -68c8 -24 43 -92 125 -92c91 0 132 80 129 159z" />
    <glyph glyph-name="otilde" unicode="&#xf5;" horiz-adv-x="583" 
d="M476 706c-3 -16 -5 -34 -11 -51c-5 -16 -28 -72 -90 -72c-29 0 -59 12 -84 22c-30 12 -45 17 -60 17c-3 0 -10 -1 -16 -4c-13 -7 -18 -21 -20 -34h-78c0 4 3 29 8 46c5 16 30 80 97 80c19 0 41 -8 81 -20c0 0 37 -17 59 -17c11 0 25 6 31 17c4 8 2 6 6 16h77zM549 252
c0 -18 -1 -65 -20 -112c-20 -51 -85 -155 -234 -155c-21 0 -64 1 -113 23c-52 23 -147 93 -147 244c0 54 15 94 22 112c21 50 85 151 234 151c19 0 63 -2 110 -23c54 -23 147 -90 148 -240zM424 254c-2 78 -47 153 -135 153c-11 0 -41 -2 -68 -19c-26 -17 -61 -58 -61 -133
c0 -24 2 -45 10 -68c8 -24 43 -92 125 -92c91 0 132 80 129 159z" />
    <glyph glyph-name="ocircumflex" unicode="&#xf4;" horiz-adv-x="583" 
d="M462 572h-122l-48 67l-49 -67h-121l111 134h118zM549 252c0 -18 -1 -65 -20 -112c-20 -51 -85 -155 -234 -155c-21 0 -64 1 -113 23c-52 23 -147 93 -147 244c0 54 15 94 22 112c21 50 85 151 234 151c19 0 63 -2 110 -23c54 -23 147 -90 148 -240zM424 254
c-2 78 -47 153 -135 153c-11 0 -41 -2 -68 -19c-26 -17 -61 -58 -61 -133c0 -24 2 -45 10 -68c8 -24 43 -92 125 -92c91 0 132 80 129 159z" />
    <glyph glyph-name="oacute" unicode="&#xf3;" horiz-adv-x="583" 
d="M438 706l-108 -133h-90l50 133h148zM549 252c0 -18 -1 -65 -20 -112c-20 -51 -85 -155 -234 -155c-21 0 -64 1 -113 23c-52 23 -147 93 -147 244c0 54 15 94 22 112c21 50 85 151 234 151c19 0 63 -2 110 -23c54 -23 147 -90 148 -240zM424 254c-2 78 -47 153 -135 153
c-11 0 -41 -2 -68 -19c-26 -17 -61 -58 -61 -133c0 -24 2 -45 10 -68c8 -24 43 -92 125 -92c91 0 132 80 129 159z" />
    <glyph glyph-name="ograve" unicode="&#xf2;" horiz-adv-x="583" 
d="M348 573h-90l-110 133h148zM549 252c0 -18 -1 -65 -20 -112c-20 -51 -85 -155 -234 -155c-21 0 -64 1 -113 23c-52 23 -147 93 -147 244c0 54 15 94 22 112c21 50 85 151 234 151c19 0 63 -2 110 -23c54 -23 147 -90 148 -240zM424 254c-2 78 -47 153 -135 153
c-11 0 -41 -2 -68 -19c-26 -17 -61 -58 -61 -133c0 -24 2 -45 10 -68c8 -24 43 -92 125 -92c91 0 132 80 129 159z" />
    <glyph glyph-name="ntilde" unicode="&#xf1;" 
d="M466 706c-4 -16 -5 -34 -11 -51c-6 -16 -29 -72 -91 -72c-29 0 -58 12 -84 22c-30 12 -44 17 -60 17c-2 0 -10 -1 -16 -4c-13 -7 -17 -21 -20 -34h-78c1 4 3 29 9 46c5 16 29 80 96 80c20 0 43 -5 81 -20c0 0 37 -17 59 -17c11 0 27 6 32 17c4 8 2 6 5 16h78zM500 0h-118
v255c0 39 0 58 -5 77c-14 58 -59 66 -83 66c-13 0 -38 -2 -63 -23c-36 -30 -47 -72 -47 -158v-217h-121v500h121v-59c2 3 12 16 22 26c47 44 115 48 132 48c74 0 117 -38 133 -61c32 -46 29 -109 29 -160v-294z" />
    <glyph glyph-name="eth" unicode="&#xf0;" horiz-adv-x="583" 
d="M550 282c0 -108 -28 -170 -69 -218c-39 -45 -91 -80 -188 -79c-92 0 -145 33 -183 72c-36 36 -51 74 -56 88c-7 19 -18 56 -19 104c-1 58 14 102 24 124c24 53 92 143 216 143c53 0 78 -17 102 -38c-11 47 -37 83 -50 100l-163 -44l-19 53l143 39c-18 17 -30 30 -48 47
l112 48c23 -21 36 -39 57 -62l92 25l20 -53l-76 -21c13 -21 29 -45 50 -89c19 -39 55 -131 55 -239zM424 254c-1 24 -6 49 -15 71c-33 76 -96 81 -116 82c-93 2 -134 -79 -133 -154s42 -157 134 -158c96 -2 132 86 130 159z" />
    <glyph glyph-name="idieresis" unicode="&#xef;" horiz-adv-x="250" 
d="M283 587h-114v119h114v-119zM81 587h-112v119h112v-119zM184 0h-119v500h119v-500z" />
    <glyph glyph-name="icircumflex" unicode="&#xee;" horiz-adv-x="250" 
d="M295 572h-122l-47 67l-50 -67h-121l111 134h118zM184 0h-119v500h119v-500z" />
    <glyph glyph-name="iacute" unicode="&#xed;" horiz-adv-x="250" 
d="M271 706l-108 -133h-90l50 133h148zM184 0h-119v500h119v-500z" />
    <glyph glyph-name="igrave" unicode="&#xec;" horiz-adv-x="250" 
d="M181 573h-89l-111 133h148zM184 0h-119v500h119v-500z" />
    <glyph glyph-name="edieresis" unicode="&#xeb;" 
d="M439 587h-114v119h114v-119zM238 587h-113v119h113v-119zM535 112c-8 -11 -22 -30 -46 -52c-28 -26 -95 -75 -198 -75c-32 0 -111 4 -179 67c-57 54 -78 123 -78 201c0 42 6 82 22 120c22 50 84 142 229 142c112 0 171 -58 197 -96c23 -35 46 -96 49 -193h-370
c2 -15 7 -46 32 -76c17 -21 47 -48 109 -48s98 29 114 46c4 4 10 12 17 23zM399 314c0 0 -3 24 -10 41c-11 24 -37 64 -102 64c-26 0 -40 -5 -50 -9c-56 -23 -69 -79 -72 -96h234z" />
    <glyph glyph-name="ecircumflex" unicode="&#xea;" 
d="M452 572h-123l-47 67l-50 -67h-121l111 134h118zM535 112c-8 -11 -22 -30 -46 -52c-28 -26 -95 -75 -198 -75c-32 0 -111 4 -179 67c-57 54 -78 123 -78 201c0 42 6 82 22 120c22 50 84 142 229 142c112 0 171 -58 197 -96c23 -35 46 -96 49 -193h-370
c2 -15 7 -46 32 -76c17 -21 47 -48 109 -48s98 29 114 46c4 4 10 12 17 23zM399 314c0 0 -3 24 -10 41c-11 24 -37 64 -102 64c-26 0 -40 -5 -50 -9c-56 -23 -69 -79 -72 -96h234z" />
    <glyph glyph-name="eacute" unicode="&#xe9;" 
d="M428 706l-108 -133h-91l50 133h149zM535 112c-8 -11 -22 -30 -46 -52c-28 -26 -95 -75 -198 -75c-32 0 -111 4 -179 67c-57 54 -78 123 -78 201c0 42 6 82 22 120c22 50 84 142 229 142c112 0 171 -58 197 -96c23 -35 46 -96 49 -193h-370c2 -15 7 -46 32 -76
c17 -21 47 -48 109 -48s98 29 114 46c4 4 10 12 17 23zM399 314c0 0 -3 24 -10 41c-11 24 -37 64 -102 64c-26 0 -40 -5 -50 -9c-56 -23 -69 -79 -72 -96h234z" />
    <glyph glyph-name="egrave" unicode="&#xe8;" 
d="M337 573h-89l-110 133h148zM535 112c-8 -11 -22 -30 -46 -52c-28 -26 -95 -75 -198 -75c-32 0 -111 4 -179 67c-57 54 -78 123 -78 201c0 42 6 82 22 120c22 50 84 142 229 142c112 0 171 -58 197 -96c23 -35 46 -96 49 -193h-370c2 -15 7 -46 32 -76
c17 -21 47 -48 109 -48s98 29 114 46c4 4 10 12 17 23zM399 314c0 0 -3 24 -10 41c-11 24 -37 64 -102 64c-26 0 -40 -5 -50 -9c-56 -23 -69 -79 -72 -96h234z" />
    <glyph glyph-name="ccedilla" unicode="&#xe7;" horiz-adv-x="517" 
d="M497 141c-4 -11 -15 -42 -41 -72c-52 -62 -104 -72 -160 -82l-26 -33h7c30 0 92 -10 94 -61c1 -21 -10 -36 -17 -44c-24 -26 -72 -35 -137 -35h-6c-18 0 -28 0 -36 1v31c7 -2 15 -1 16 -1c30 0 64 4 64 25c0 24 -34 25 -65 25c-8 0 -13 0 -21 -2v15l77 79
c-31 6 -65 12 -96 29c-99 54 -126 162 -126 234c0 140 98 265 252 265c126 0 191 -84 216 -142l-107 -50c-26 78 -92 85 -111 85c-96 2 -126 -89 -126 -155c0 -67 32 -157 127 -156c81 0 105 64 120 98z" />
    <glyph glyph-name="aring" unicode="&#xe5;" horiz-adv-x="542" 
d="M366 662c0 -57 -46 -102 -101 -102c-56 0 -102 45 -102 102c0 56 46 101 102 101c17 0 35 -5 50 -13c38 -22 51 -61 51 -88zM500 0h-142l-3 39c-19 -16 -36 -24 -46 -28c-33 -15 -64 -23 -101 -23c-24 0 -114 3 -160 77c-8 13 -23 40 -22 80c0 28 7 84 68 125
c41 28 80 34 126 43c74 15 101 21 138 34c0 13 -1 29 -7 41c-10 19 -35 34 -79 34c-46 0 -75 -14 -88 -31c-14 -17 -13 -37 -13 -44l-122 7c1 22 5 75 54 115c31 26 78 46 165 46c82 0 130 -17 161 -39c21 -15 32 -32 36 -40c13 -26 13 -61 13 -89v-266c0 -38 2 -49 22 -81z
M306 661c0 24 -19 42 -42 42c-7 0 -15 -2 -21 -5c-14 -8 -21 -24 -21 -37c0 -23 19 -42 42 -42c24 0 42 20 42 42zM358 194v55c-20 -10 -46 -20 -95 -28c-27 -5 -56 -6 -81 -21c-17 -11 -29 -28 -29 -50c0 -30 22 -59 82 -59c66 0 105 34 116 57c8 16 7 30 7 46z" />
    <glyph glyph-name="adieresis" unicode="&#xe4;" horiz-adv-x="542" 
d="M422 587h-114v119h114v-119zM220 587h-112v119h112v-119zM500 0h-142l-3 39c-19 -16 -36 -24 -46 -28c-33 -15 -64 -23 -101 -23c-24 0 -114 3 -160 77c-8 13 -23 40 -22 80c0 28 7 84 68 125c41 28 80 34 126 43c74 15 101 21 138 34c0 13 -1 29 -7 41
c-10 19 -35 34 -79 34c-46 0 -75 -14 -88 -31c-14 -17 -13 -37 -13 -44l-122 7c1 22 5 75 54 115c31 26 78 46 165 46c82 0 130 -17 161 -39c21 -15 32 -32 36 -40c13 -26 13 -61 13 -89v-266c0 -38 2 -49 22 -81zM358 194v55c-20 -10 -46 -20 -95 -28
c-27 -5 -56 -6 -81 -21c-17 -11 -29 -28 -29 -50c0 -30 22 -59 82 -59c66 0 105 34 116 57c8 16 7 30 7 46z" />
    <glyph glyph-name="atilde" unicode="&#xe3;" horiz-adv-x="542" 
d="M455 706c-3 -16 -4 -34 -10 -51c-5 -16 -29 -72 -91 -72c-29 0 -58 12 -84 22c-30 12 -45 17 -60 17c-2 0 -10 -1 -16 -4c-13 -7 -18 -21 -20 -34h-78c0 4 3 29 8 46c5 16 30 80 97 80c20 0 41 -8 81 -20c0 0 37 -17 59 -17c11 0 26 6 31 17c4 8 2 6 6 16h77zM500 0h-142
l-3 39c-19 -16 -36 -24 -46 -28c-33 -15 -64 -23 -101 -23c-24 0 -114 3 -160 77c-8 13 -23 40 -22 80c0 28 7 84 68 125c41 28 80 34 126 43c74 15 101 21 138 34c0 13 -1 29 -7 41c-10 19 -35 34 -79 34c-46 0 -75 -14 -88 -31c-14 -17 -13 -37 -13 -44l-122 7
c1 22 5 75 54 115c31 26 78 46 165 46c82 0 130 -17 161 -39c21 -15 32 -32 36 -40c13 -26 13 -61 13 -89v-266c0 -38 2 -49 22 -81zM358 194v55c-20 -10 -46 -20 -95 -28c-27 -5 -56 -6 -81 -21c-17 -11 -29 -28 -29 -50c0 -30 22 -59 82 -59c66 0 105 34 116 57
c8 16 7 30 7 46z" />
    <glyph glyph-name="acircumflex" unicode="&#xe2;" horiz-adv-x="542" 
d="M441 572h-122l-48 67l-49 -67h-121l111 134h118zM500 0h-142l-3 39c-19 -16 -36 -24 -46 -28c-33 -15 -64 -23 -101 -23c-24 0 -114 3 -160 77c-8 13 -23 40 -22 80c0 28 7 84 68 125c41 28 80 34 126 43c74 15 101 21 138 34c0 13 -1 29 -7 41c-10 19 -35 34 -79 34
c-46 0 -75 -14 -88 -31c-14 -17 -13 -37 -13 -44l-122 7c1 22 5 75 54 115c31 26 78 46 165 46c82 0 130 -17 161 -39c21 -15 32 -32 36 -40c13 -26 13 -61 13 -89v-266c0 -38 2 -49 22 -81zM358 194v55c-20 -10 -46 -20 -95 -28c-27 -5 -56 -6 -81 -21
c-17 -11 -29 -28 -29 -50c0 -30 22 -59 82 -59c66 0 105 34 116 57c8 16 7 30 7 46z" />
    <glyph glyph-name="aacute" unicode="&#xe1;" horiz-adv-x="542" 
d="M417 706l-108 -133h-90l50 133h148zM500 0h-142l-3 39c-19 -16 -36 -24 -46 -28c-33 -15 -64 -23 -101 -23c-24 0 -114 3 -160 77c-8 13 -23 40 -22 80c0 28 7 84 68 125c41 28 80 34 126 43c74 15 101 21 138 34c0 13 -1 29 -7 41c-10 19 -35 34 -79 34
c-46 0 -75 -14 -88 -31c-14 -17 -13 -37 -13 -44l-122 7c1 22 5 75 54 115c31 26 78 46 165 46c82 0 130 -17 161 -39c21 -15 32 -32 36 -40c13 -26 13 -61 13 -89v-266c0 -38 2 -49 22 -81zM358 194v55c-20 -10 -46 -20 -95 -28c-27 -5 -56 -6 -81 -21
c-17 -11 -29 -28 -29 -50c0 -30 22 -59 82 -59c66 0 105 34 116 57c8 16 7 30 7 46z" />
    <glyph glyph-name="agrave" unicode="&#xe0;" horiz-adv-x="542" 
d="M348 573h-90l-110 133h148zM500 0h-142l-3 39c-19 -16 -36 -24 -46 -28c-33 -15 -64 -23 -101 -23c-24 0 -114 3 -160 77c-8 13 -23 40 -22 80c0 28 7 84 68 125c41 28 80 34 126 43c74 15 101 21 138 34c0 13 -1 29 -7 41c-10 19 -35 34 -79 34c-46 0 -75 -14 -88 -31
c-14 -17 -13 -37 -13 -44l-122 7c1 22 5 75 54 115c31 26 78 46 165 46c82 0 130 -17 161 -39c21 -15 32 -32 36 -40c13 -26 13 -61 13 -89v-266c0 -38 2 -49 22 -81zM358 194v55c-20 -10 -46 -20 -95 -28c-27 -5 -56 -6 -81 -21c-17 -11 -29 -28 -29 -50
c0 -30 22 -59 82 -59c66 0 105 34 116 57c8 16 7 30 7 46z" />
    <glyph glyph-name="Thorn" unicode="&#xde;" horiz-adv-x="625" 
d="M607 375c0 -45 -9 -97 -39 -141c-61 -88 -159 -94 -227 -94h-127v-140h-132v706h132v-100h106c73 0 168 -1 238 -87c49 -59 49 -129 49 -144zM471 377c0 30 -8 52 -17 65c-28 43 -68 51 -139 51h-101v-245h95c81 0 125 12 150 67c12 26 12 55 12 62z" />
    <glyph glyph-name="Yacute" unicode="&#xdd;" horiz-adv-x="625" 
d="M454 895l-108 -120h-89l53 120h144zM615 706l-238 -427v-279h-131v279l-236 427h150l153 -292l154 292h148z" />
    <glyph glyph-name="Udieresis" unicode="&#xdc;" horiz-adv-x="729" 
d="M522 772h-114v123h114v-123zM321 772h-113v123h113v-123zM649 299c0 -81 1 -115 -12 -155c-23 -71 -104 -162 -277 -162c-83 0 -166 20 -224 84c-9 9 -33 38 -45 76c-11 36 -11 69 -11 144v420h133v-434c0 -42 0 -57 7 -78c13 -42 51 -84 145 -84c17 0 114 0 143 80
c8 23 9 42 9 89v427h132v-407z" />
    <glyph glyph-name="Ucircumflex" unicode="&#xdb;" horiz-adv-x="729" 
d="M529 773h-121l-42 56l-43 -56h-117l101 122h117zM649 299c0 -81 1 -115 -12 -155c-23 -71 -104 -162 -277 -162c-83 0 -166 20 -224 84c-9 9 -33 38 -45 76c-11 36 -11 69 -11 144v420h133v-434c0 -42 0 -57 7 -78c13 -42 51 -84 145 -84c17 0 114 0 143 80
c8 23 9 42 9 89v427h132v-407z" />
    <glyph glyph-name="Uacute" unicode="&#xda;" horiz-adv-x="729" 
d="M506 895l-108 -120h-89l53 120h144zM649 299c0 -81 1 -115 -12 -155c-23 -71 -104 -162 -277 -162c-83 0 -166 20 -224 84c-9 9 -33 38 -45 76c-11 36 -11 69 -11 144v420h133v-434c0 -42 0 -57 7 -78c13 -42 51 -84 145 -84c17 0 114 0 143 80c8 23 9 42 9 89v427h132
v-407z" />
    <glyph glyph-name="Ugrave" unicode="&#xd9;" horiz-adv-x="729" 
d="M423 774h-90l-106 121h141zM649 299c0 -81 1 -115 -12 -155c-23 -71 -104 -162 -277 -162c-83 0 -166 20 -224 84c-9 9 -33 38 -45 76c-11 36 -11 69 -11 144v420h133v-434c0 -42 0 -57 7 -78c13 -42 51 -84 145 -84c17 0 114 0 143 80c8 23 9 42 9 89v427h132v-407z" />
    <glyph glyph-name="multiply" unicode="&#xd7;" horiz-adv-x="724" 
d="M604 174l-91 -93l-155 150l-142 -147l-76 74l142 147l-153 149l90 93l154 -149l142 147l76 -74l-142 -147z" />
    <glyph glyph-name="Odieresis" unicode="&#xd6;" horiz-adv-x="771" 
d="M544 772h-114v123h114v-123zM343 772h-113v123h113v-123zM725 353c0 -44 -5 -169 -98 -270c-16 -17 -57 -58 -120 -81c-22 -8 -63 -20 -123 -20c-100 0 -176 33 -242 109c-66 75 -94 163 -94 261c0 23 1 77 21 137c46 141 167 235 318 235c136 0 217 -74 250 -112
c37 -42 89 -124 88 -259zM592 339c1 58 -10 120 -42 171c-37 60 -93 93 -164 93c-44 0 -76 -14 -90 -21c-50 -27 -112 -93 -112 -225c0 -27 1 -157 100 -222c43 -28 86 -30 104 -30c14 0 46 1 81 17c52 24 120 84 123 217z" />
    <glyph glyph-name="Otilde" unicode="&#xd5;" horiz-adv-x="771" 
d="M570 894c-1 -10 -5 -78 -50 -110c-9 -7 -26 -16 -52 -16c-29 0 -58 11 -84 21c-29 12 -44 18 -59 17c-3 0 -11 0 -17 -3c-12 -7 -17 -22 -20 -34h-77c0 3 3 29 8 45c5 17 29 80 96 80c35 0 75 -17 82 -20c28 -11 44 -17 58 -17c10 0 16 4 19 6c14 9 14 17 18 32zM725 353
c0 -44 -5 -169 -98 -270c-16 -17 -57 -58 -120 -81c-22 -8 -63 -20 -123 -20c-100 0 -176 33 -242 109c-66 75 -94 163 -94 261c0 23 1 77 21 137c46 141 167 235 318 235c136 0 217 -74 250 -112c37 -42 89 -124 88 -259zM592 339c1 58 -10 120 -42 171
c-37 60 -93 93 -164 93c-44 0 -76 -14 -90 -21c-50 -27 -112 -93 -112 -225c0 -27 1 -157 100 -222c43 -28 86 -30 104 -30c14 0 46 1 81 17c52 24 120 84 123 217z" />
    <glyph glyph-name="Ocircumflex" unicode="&#xd4;" horiz-adv-x="771" 
d="M550 773h-121l-43 56l-42 -56h-117l100 122h118zM725 353c0 -44 -5 -169 -98 -270c-16 -17 -57 -58 -120 -81c-22 -8 -63 -20 -123 -20c-100 0 -176 33 -242 109c-66 75 -94 163 -94 261c0 23 1 77 21 137c46 141 167 235 318 235c136 0 217 -74 250 -112
c37 -42 89 -124 88 -259zM592 339c1 58 -10 120 -42 171c-37 60 -93 93 -164 93c-44 0 -76 -14 -90 -21c-50 -27 -112 -93 -112 -225c0 -27 1 -157 100 -222c43 -28 86 -30 104 -30c14 0 46 1 81 17c52 24 120 84 123 217z" />
    <glyph glyph-name="Oacute" unicode="&#xd3;" horiz-adv-x="771" 
d="M526 895l-107 -120h-89l53 120h143zM725 353c0 -44 -5 -169 -98 -270c-16 -17 -57 -58 -120 -81c-22 -8 -63 -20 -123 -20c-100 0 -176 33 -242 109c-66 75 -94 163 -94 261c0 23 1 77 21 137c46 141 167 235 318 235c136 0 217 -74 250 -112c37 -42 89 -124 88 -259z
M592 339c1 58 -10 120 -42 171c-37 60 -93 93 -164 93c-44 0 -76 -14 -90 -21c-50 -27 -112 -93 -112 -225c0 -27 1 -157 100 -222c43 -28 86 -30 104 -30c14 0 46 1 81 17c52 24 120 84 123 217z" />
    <glyph glyph-name="Ograve" unicode="&#xd2;" horiz-adv-x="771" 
d="M443 774h-89l-107 121h142zM725 353c0 -44 -5 -169 -98 -270c-16 -17 -57 -58 -120 -81c-22 -8 -63 -20 -123 -20c-100 0 -176 33 -242 109c-66 75 -94 163 -94 261c0 23 1 77 21 137c46 141 167 235 318 235c136 0 217 -74 250 -112c37 -42 89 -124 88 -259zM592 339
c1 58 -10 120 -42 171c-37 60 -93 93 -164 93c-44 0 -76 -14 -90 -21c-50 -27 -112 -93 -112 -225c0 -27 1 -157 100 -222c43 -28 86 -30 104 -30c14 0 46 1 81 17c52 24 120 84 123 217z" />
    <glyph glyph-name="Ntilde" unicode="&#xd1;" horiz-adv-x="708" 
d="M539 894c-1 -10 -6 -78 -51 -110c-8 -7 -25 -16 -51 -16c-29 0 -58 11 -84 21c-30 12 -45 18 -60 17c-2 0 -10 0 -16 -3c-13 -7 -17 -22 -20 -34h-78c1 3 4 29 9 45c6 17 29 80 96 80c35 0 75 -17 82 -20c27 -11 43 -17 58 -17c9 0 16 4 19 6c14 9 14 17 18 32zM628 0
h-116l-309 495l8 -495h-129v706h119l313 -498l-16 498h130v-706z" />
    <glyph glyph-name="Eth" unicode="&#xd0;" horiz-adv-x="708" 
d="M669 346c0 -105 -34 -268 -190 -324c-57 -21 -115 -22 -171 -22h-237v326h-68v90h68v290h232c75 0 110 -3 147 -14c117 -35 220 -147 219 -346zM529 347c0 81 -18 193 -131 229c-30 9 -67 11 -96 11h-99v-171h154v-90h-154v-207h56c72 0 115 2 147 11
c83 22 123 88 123 217z" />
    <glyph glyph-name="Idieresis" unicode="&#xcf;" horiz-adv-x="292" 
d="M304 772h-114v123h114v-123zM102 772h-112v123h112v-123zM210 0h-130v706h130v-706z" />
    <glyph glyph-name="Icircumflex" unicode="&#xce;" horiz-adv-x="292" 
d="M310 773h-121l-42 56l-42 -56h-118l101 122h117zM210 0h-130v706h130v-706z" />
    <glyph glyph-name="Iacute" unicode="&#xcd;" horiz-adv-x="292" 
d="M287 895l-108 -120h-89l54 120h143zM210 0h-130v706h130v-706z" />
    <glyph glyph-name="Igrave" unicode="&#xcc;" horiz-adv-x="292" 
d="M204 774h-89l-107 121h142zM210 0h-130v706h130v-706z" />
    <glyph glyph-name="Edieresis" unicode="&#xcb;" horiz-adv-x="625" 
d="M471 772h-114v123h114v-123zM269 772h-112v123h112v-123zM605 0h-527v706h502v-118h-372v-166h341v-114h-341v-189h397v-119z" />
    <glyph glyph-name="Ecircumflex" unicode="&#xca;" horiz-adv-x="625" 
d="M477 773h-121l-43 56l-42 -56h-117l101 122h117zM605 0h-527v706h502v-118h-372v-166h341v-114h-341v-189h397v-119z" />
    <glyph glyph-name="Eacute" unicode="&#xc9;" horiz-adv-x="625" 
d="M454 895l-108 -120h-89l53 120h144zM605 0h-527v706h502v-118h-372v-166h341v-114h-341v-189h397v-119z" />
    <glyph glyph-name="Egrave" unicode="&#xc8;" horiz-adv-x="625" 
d="M371 774h-90l-107 121h142zM605 0h-527v706h502v-118h-372v-166h341v-114h-341v-189h397v-119z" />
    <glyph glyph-name="Ccedilla" unicode="&#xc7;" horiz-adv-x="688" 
d="M672 197l-4 -10c-78 -194 -230 -196 -285 -203l-24 -30h8c31 0 91 -10 94 -61c0 -6 0 -23 -14 -40c-23 -30 -74 -39 -140 -39h-6c-18 0 -28 0 -36 1v31c7 -2 15 -1 16 -1c30 0 64 4 64 25c0 24 -34 25 -66 25c-7 0 -12 0 -20 -2v15l75 77c-45 8 -92 14 -137 41
c-88 52 -163 166 -160 339c0 19 2 81 23 141c55 153 185 219 314 218c121 -1 196 -55 237 -114c29 -42 45 -95 48 -104l-131 -34c-5 44 -42 131 -154 131c-90 0 -193 -69 -194 -243c-1 -176 96 -252 194 -253c115 -1 162 103 173 142z" />
    <glyph glyph-name="Aring" unicode="&#xc5;" horiz-adv-x="646" 
d="M428 861c0 -56 -45 -101 -102 -101c-56 0 -101 45 -101 102c0 55 45 101 102 101c56 0 101 -47 101 -102zM636 0h-141l-41 138h-265l-41 -138h-142l239 706h150zM368 862c0 23 -19 41 -42 41s-42 -19 -42 -42c1 -23 20 -42 43 -42c23 1 41 19 41 43zM419 254l-97 325
l-98 -325h195z" />
    <glyph glyph-name="Adieresis" unicode="&#xc4;" horiz-adv-x="646" 
d="M484 772h-113v123h113v-123zM283 772h-112v123h112v-123zM636 0h-141l-41 138h-265l-41 -138h-142l239 706h150zM419 254l-97 325l-98 -325h195z" />
    <glyph glyph-name="Atilde" unicode="&#xc3;" horiz-adv-x="646" 
d="M507 894c-1 -10 -5 -78 -50 -110c-8 -7 -25 -16 -51 -16c-29 0 -58 11 -84 21c-30 12 -45 18 -60 17c-2 0 -10 0 -16 -3c-13 -7 -18 -22 -20 -34h-78c1 3 3 29 8 45c6 17 30 80 97 80c35 0 75 -17 81 -20c28 -11 44 -17 59 -17c9 0 16 4 19 6c14 9 14 17 18 32zM636 0
h-141l-41 138h-265l-41 -138h-142l239 706h150zM419 254l-97 325l-98 -325h195z" />
    <glyph glyph-name="Acircumflex" unicode="&#xc2;" horiz-adv-x="646" 
d="M487 773h-121l-42 56l-42 -56h-118l101 122h117zM636 0h-141l-41 138h-265l-41 -138h-142l239 706h150zM419 254l-97 325l-98 -325h195z" />
    <glyph glyph-name="Aacute" unicode="&#xc1;" horiz-adv-x="646" 
d="M464 895l-108 -120h-89l54 120h143zM636 0h-141l-41 138h-265l-41 -138h-142l239 706h150zM419 254l-97 325l-98 -325h195z" />
    <glyph glyph-name="Agrave" unicode="&#xc0;" horiz-adv-x="646" 
d="M381 774h-89l-107 121h142zM636 0h-141l-41 138h-265l-41 -138h-142l239 706h150zM419 254l-97 325l-98 -325h195z" />
    <glyph glyph-name="mu" unicode="&#xb5;" horiz-adv-x="597" 
d="M574 -1c-23 -6 -45 -9 -66 -9c-29 0 -53 7 -71 22c-16 12 -21 22 -33 57c-26 -58 -56 -79 -112 -79c-46 0 -74 17 -100 58l3 -264h-120v715h123v-231c0 -81 4 -112 20 -136c15 -23 44 -38 74 -38c62 0 98 55 98 149v46v210h122v-348c0 -47 8 -62 34 -62c9 0 13 2 28 8
v-98z" />
    <glyph glyph-name="plusminus" unicode="&#xb1;" horiz-adv-x="724" 
d="M631 365h-204v-203h-130v203h-204v107h204v199h130v-199h204v-107zM631 0h-538v107h538v-107z" />
    <glyph glyph-name="degree" unicode="&#xb0;" horiz-adv-x="354" 
d="M349 582c0 -94 -78 -172 -172 -172s-172 78 -172 172c0 95 76 173 172 173s172 -77 172 -173zM249 582c0 40 -33 71 -72 71c-40 0 -72 -31 -72 -71c0 -39 33 -72 72 -72s72 33 72 72z" />
    <glyph glyph-name="registered" unicode="&#xae;" horiz-adv-x="827" 
d="M770 360c0 -207 -153 -363 -357 -363c-197 0 -355 158 -355 356s158 356 356 356c195 0 356 -157 356 -349zM730 347c0 185 -136 325 -317 325c-174 0 -315 -143 -315 -320s140 -318 315 -318c173 0 317 142 317 313zM580 134h-102l-63 169h-58l-1 -169h-93v446h147
c36 0 77 -1 108 -20c37 -23 60 -69 60 -121c0 -57 -22 -92 -76 -120zM484 439c0 39 -21 57 -67 57h-61v-115h58c49 0 70 18 70 58z" />
    <glyph glyph-name="logicalnot" unicode="&#xac;" horiz-adv-x="724" 
d="M635 16h-130v242h-436v109h566v-351z" />
    <glyph glyph-name="copyright" unicode="&#xa9;" horiz-adv-x="818" 
d="M765 360c0 -207 -153 -363 -357 -363c-197 0 -355 158 -355 356s158 356 357 356c194 0 355 -158 355 -349zM725 346c0 186 -136 326 -316 326c-174 0 -315 -143 -315 -320c0 -178 139 -318 315 -318c172 0 316 142 316 312zM581 203c-54 -61 -101 -84 -168 -84
c-122 0 -206 94 -206 232c0 134 88 233 206 233c71 0 113 -21 168 -83l-63 -65c-39 45 -64 59 -103 59c-65 0 -108 -57 -108 -143c0 -87 42 -142 107 -142c42 0 70 15 104 56z" />
    <glyph glyph-name="brokenbar" unicode="&#xa6;" horiz-adv-x="247" 
d="M178 376h-109v402h109v-402zM178 -144h-109v401h109v-401z" />
    <glyph glyph-name="threesuperior" unicode="&#xb3;" horiz-adv-x="375" 
d="M336 366c0 -94 -75 -141 -157 -141c-51 0 -120 17 -148 86c-10 25 -10 44 -10 69h87c1 -13 0 -80 68 -82c41 -2 69 26 71 67c2 65 -66 66 -77 66h-25v71h27c3 0 66 -5 66 49c0 50 -45 54 -58 54c-48 0 -58 -38 -63 -73l-85 19c1 7 7 39 24 65c33 51 87 65 129 65
c63 1 103 -27 124 -59c12 -19 18 -42 18 -62c0 -8 0 -52 -43 -79c-9 -6 -20 -9 -29 -12c34 -12 81 -30 81 -103z" />
    <glyph glyph-name="twosuperior" unicode="&#xb2;" horiz-adv-x="375" 
d="M338 233h-302v66c16 11 27 19 42 30c65 51 116 106 134 135c22 35 24 65 24 77c0 49 -33 62 -54 62c-63 1 -58 -69 -61 -101l-87 7c4 28 1 171 148 172c81 1 146 -45 147 -133c2 -104 -83 -167 -178 -244h187v-71z" />
    <glyph glyph-name="onesuperior" unicode="&#xb9;" horiz-adv-x="375" 
d="M257 233h-85v257c0 30 7 43 -45 44l-63 1v59l21 1c23 1 93 1 101 85h71v-447z" />
    <glyph glyph-name="threequarters" unicode="&#xbe;" horiz-adv-x="875" 
d="M855 99h-59v-99h-80v101h-194v63l194 278h83v-271h56v-72zM644 646l-313 -683l-69 31l315 684zM336 366c0 -94 -75 -141 -157 -141c-51 0 -120 17 -148 86c-10 25 -10 44 -10 69h87c1 -13 0 -80 68 -82c41 -2 69 26 71 67c2 65 -66 66 -77 66h-25v71h27c3 0 66 -5 66 49
c0 50 -45 54 -58 54c-48 0 -58 -38 -63 -73l-85 19c1 7 7 39 24 65c33 51 87 65 129 65c63 1 103 -27 124 -59c12 -19 18 -42 18 -62c0 -8 0 -52 -43 -79c-9 -6 -20 -9 -29 -12c34 -12 81 -30 81 -103zM721 341l-110 -169h108z" />
    <glyph glyph-name="onehalf" unicode="&#xbd;" horiz-adv-x="875" 
d="M838 0h-302v67c89 60 158 133 178 167c20 33 22 64 22 74c0 49 -33 62 -54 62c-49 1 -53 -37 -58 -69c0 -3 -3 -28 -3 -31l-86 6c1 30 1 171 148 173c118 1 145 -88 146 -133c2 -82 -37 -132 -179 -245h188v-71zM612 646l-314 -683l-69 31l315 684zM257 233h-85v257
c0 30 7 43 -45 44l-63 1v59l21 1c23 1 93 1 101 85h71v-447z" />
    <glyph glyph-name="onequarter" unicode="&#xbc;" horiz-adv-x="875" 
d="M855 99h-59v-99h-80v101h-194v63l194 278h83v-271h56v-72zM621 646l-314 -683l-69 31l315 684zM257 233h-85v257c0 30 7 43 -45 44l-63 1v59l21 1c23 1 93 1 101 85h71v-447zM721 341l-110 -169h108z" />
    <glyph glyph-name="Euro" unicode="&#x20ac;" horiz-adv-x="698" 
d="M665 621l-46 -133c-47 61 -96 90 -174 90c-94 0 -163 -51 -188 -142h345l-27 -72h-328c-1 -6 -1 -13 -1 -19c0 -7 0 -14 1 -21h316l-27 -72h-280c27 -96 92 -151 193 -151c74 0 146 33 195 88v-149c-63 -43 -135 -61 -210 -61c-179 0 -287 101 -323 273h-78l27 72h43
l2 40h-72l27 72h53c38 164 157 259 325 259c90 0 156 -17 227 -74z" />
    </font>
</defs>
</svg>
