<?xml version="1.0" standalone="no"?>
<!DOCTYPE svg PUBLIC "-//W3C//DTD SVG 1.1//EN" "http://www.w3.org/Graphics/SVG/1.1/DTD/svg11.dtd" >
<svg xmlns="http://www.w3.org/2000/svg" xmlns:xlink="http://www.w3.org/1999/xlink" version="1.1">
<metadata>
Created by FontForge 20201107 at Thu May 17 18:00:00 2007
 By Unknown
Copyright (c) 1997, 2001 Berthold LLC. All rights reserved. Akzidenz Grotesk is a trademark of the BertholdTypes Limited.
</metadata>
<defs>
<font id="AkzidenzGroteskBQ-Light" horiz-adv-x="521" >
  <font-face 
    font-family="Akzidenz-Grotesk BQ"
    font-weight="300"
    font-stretch="normal"
    units-per-em="1000"
    panose-1="0 0 0 0 0 0 0 0 0 0"
    ascent="800"
    descent="-200"
    x-height="477"
    cap-height="706"
    bbox="-92 -256 1219 907"
    underline-thickness="59"
    underline-position="-205"
    stemh="52"
    stemv="61"
    unicode-range="U+0020-2122"
  />
<missing-glyph horiz-adv-x="500" 
 />
    <glyph glyph-name=".notdef" horiz-adv-x="500" 
 />
    <glyph glyph-name="space" unicode=" " horiz-adv-x="258" 
 />
    <glyph glyph-name="exclam" unicode="!" horiz-adv-x="208" 
d="M156 307l-9 -131h-47l-8 131v405h64v-405zM162 0h-76v116h76v-116z" />
    <glyph glyph-name="quotedbl" unicode="&#x22;" horiz-adv-x="357" 
d="M306 743l-26 -291h-30l-27 291h83zM134 743l-26 -291h-30l-27 291h83z" />
    <glyph glyph-name="numbersign" unicode="#" horiz-adv-x="667" 
d="M624 410h-175l-13 -97h168v-54h-175l-35 -259h-62l38 259h-101l-38 -259h-58l36 259h-167v54h175l13 97h-167v57h174l32 241h63l-34 -241h100l31 241h60l-33 -241h168v-57zM390 410h-100l-14 -97h101z" />
    <glyph glyph-name="dollar" unicode="$" horiz-adv-x="604" 
d="M552 203c0 -36 -13 -119 -101 -169c-22 -12 -66 -32 -128 -34v-92h-58v92c-40 4 -120 14 -188 94c-22 25 -38 53 -51 84l71 7c21 -46 64 -89 111 -108c12 -5 28 -11 57 -15v284c-146 39 -198 106 -197 184c0 45 17 90 50 120c51 48 130 55 147 56v62h58v-62
c55 -3 115 -28 151 -71c10 -13 35 -47 46 -92l-67 -7c-31 85 -95 104 -130 107v-247c17 -5 79 -19 134 -48c58 -31 95 -76 95 -145zM265 414v231c-13 0 -32 -1 -58 -11c-63 -25 -73 -74 -73 -101c0 -20 4 -50 41 -78c10 -8 49 -33 90 -41zM484 197c0 35 -14 61 -42 81
c-17 13 -62 36 -119 49v-267c12 0 44 0 78 15c71 31 83 95 83 122z" />
    <glyph glyph-name="percent" unicode="%" horiz-adv-x="875" 
d="M844 212c-1 -17 -2 -130 -68 -188c-35 -30 -72 -32 -89 -32c-12 0 -46 2 -75 22c-41 27 -81 93 -81 205c0 17 -2 126 58 189c15 16 44 41 100 41c57 -1 87 -27 102 -44c56 -66 53 -177 53 -193zM638 730l-353 -769l-40 18l351 770zM344 477c0 -19 -2 -108 -49 -168
c-28 -35 -63 -52 -108 -52c-13 0 -44 1 -73 20c-43 28 -83 93 -83 208c0 16 -2 137 69 198c35 30 71 31 89 31c12 0 47 -1 77 -22c43 -30 81 -99 78 -215zM793 213c1 62 -11 106 -21 129c-23 52 -59 64 -84 64c-11 0 -31 -3 -52 -20c-44 -37 -55 -113 -54 -165
c0 -43 7 -76 11 -92c3 -12 12 -54 46 -78c19 -13 40 -14 49 -14c91 0 104 112 105 176zM293 478c2 119 -39 193 -105 192c-21 0 -57 -9 -81 -55c-11 -21 -25 -68 -25 -131c0 -4 0 -94 32 -142c8 -13 30 -40 74 -40c90 1 104 112 105 176z" />
    <glyph glyph-name="ampersand" unicode="&#x26;" horiz-adv-x="646" 
d="M620 -9c-41 1 -60 11 -76 21c-11 6 -21 14 -31 23c-16 15 -29 32 -44 48c-11 -15 -24 -32 -58 -53c-23 -15 -67 -38 -136 -38c-24 0 -85 2 -140 42c-51 38 -80 92 -80 154c0 103 75 169 99 188c24 20 53 36 78 54c-13 17 -57 76 -57 151c0 83 56 138 140 138
c76 0 138 -43 138 -124c0 -34 -11 -64 -30 -92c-29 -43 -64 -66 -107 -94c25 -40 54 -81 81 -122c23 -34 46 -68 72 -99c23 62 24 95 25 128h63c-1 -60 -22 -119 -29 -135c-9 -23 -15 -33 -21 -44c8 -10 17 -21 25 -31c26 -32 46 -52 88 -54v-61zM391 591
c0 21 -12 72 -75 72c-71 0 -80 -57 -80 -82c0 -43 27 -84 48 -119c39 18 74 43 95 81c3 6 12 26 12 48zM435 128c-27 37 -52 73 -77 110c-31 47 -60 93 -93 140c-11 -7 -23 -14 -34 -22c-58 -39 -107 -90 -107 -165c0 -12 0 -37 15 -64c14 -25 56 -78 138 -77
c34 0 102 10 158 78z" />
    <glyph glyph-name="quoteright" unicode="&#x2019;" horiz-adv-x="167" 
d="M123 608c0 -73 -4 -113 -46 -176l-33 23c31 50 38 77 38 135h-38v116h79v-98z" />
    <glyph glyph-name="parenleft" unicode="(" horiz-adv-x="308" 
d="M311 -125l-25 -37c-158 120 -243 291 -243 487c0 65 12 137 33 200c25 74 63 139 114 193c30 31 46 45 93 79l24 -33c-49 -42 -65 -59 -91 -94c-64 -86 -100 -209 -100 -341c0 -105 26 -213 71 -302c18 -35 38 -66 61 -93c21 -25 32 -36 63 -59z" />
    <glyph glyph-name="parenright" unicode=")" horiz-adv-x="313" 
d="M275 315c0 -66 -13 -139 -34 -202c-25 -74 -64 -139 -115 -193c-29 -30 -46 -44 -93 -78l-24 32c49 43 65 59 91 94c65 87 101 210 101 343c0 104 -25 212 -70 301c-18 34 -38 65 -60 93c-21 25 -32 35 -63 59l25 37c157 -121 242 -291 242 -486z" />
    <glyph glyph-name="asterisk" unicode="*" horiz-adv-x="357" 
d="M324 595l-110 -39l67 -91l-37 -27l-68 90l-61 -90l-38 27l62 92l-106 30l14 43l106 -28v109h48v-111l108 36z" />
    <glyph glyph-name="plus" unicode="+" horiz-adv-x="724" 
d="M630 263h-238v-238h-60v238h-238v60h238v237h60v-237h238v-60z" />
    <glyph glyph-name="comma" unicode="," horiz-adv-x="167" 
d="M123 18c0 -73 -4 -114 -46 -176l-33 23c31 50 38 77 38 135h-38v116h79v-98z" />
    <glyph glyph-name="hyphen" unicode="-" horiz-adv-x="341" 
d="M303 264h-265v60h265v-60z" />
    <glyph glyph-name="period" unicode="." horiz-adv-x="167" 
d="M123 0h-79v116h79v-116z" />
    <glyph glyph-name="slash" unicode="/" horiz-adv-x="479" 
d="M469 706l-383 -706h-76l385 706h74z" />
    <glyph glyph-name="zero" unicode="0" horiz-adv-x="583" 
d="M540 338c-1 -25 -3 -190 -94 -286c-43 -45 -93 -65 -156 -65c-20 0 -72 2 -118 34c-67 46 -128 151 -128 331c0 24 -4 219 108 316c22 20 67 52 141 52c94 0 143 -48 166 -76c86 -105 81 -281 81 -306zM473 340c0 20 2 141 -40 227c-12 23 -51 98 -141 98
c-22 0 -62 -4 -101 -43c-65 -65 -80 -182 -80 -267c0 -95 18 -168 32 -202c8 -21 22 -45 39 -63c15 -17 49 -47 110 -47c46 0 85 17 114 51c37 43 65 121 67 246z" />
    <glyph glyph-name="one" unicode="1" horiz-adv-x="583" 
d="M350 0h-61l-1 573c-13 -11 -25 -14 -42 -19c-12 -3 -37 -9 -68 -9h-18l1 54c30 1 46 5 60 9c23 7 68 24 68 88v10h61v-706z" />
    <glyph glyph-name="two" unicode="2" horiz-adv-x="583" 
d="M530 495c0 -34 -5 -87 -48 -155c-70 -111 -219 -213 -238 -226c-48 -35 -92 -59 -92 -59h354v-55h-446v55l14 9c21 13 43 27 64 41c42 29 82 59 122 91c9 8 71 57 113 101c22 23 91 95 91 202c0 30 -6 59 -20 86c-42 78 -132 82 -155 82c-64 0 -122 -27 -153 -85
c-6 -11 -19 -39 -19 -74c0 -62 36 -105 49 -120l-82 10c-22 55 -25 90 -25 116c0 42 11 72 17 87c22 49 84 119 214 119c36 0 163 -5 218 -121c8 -18 22 -54 22 -104z" />
    <glyph glyph-name="three" unicode="3" horiz-adv-x="583" 
d="M524 197c0 -15 -2 -56 -21 -95c-40 -82 -128 -115 -215 -115c-119 0 -181 58 -207 99c-14 22 -32 58 -38 116l67 22c0 -8 0 -39 7 -66c22 -82 93 -114 172 -114c139 0 168 90 168 148c0 17 -2 79 -49 116c-40 31 -88 31 -136 31h-98v55h84c36 0 48 2 66 4
c62 9 88 32 103 57c18 29 19 59 19 71c0 31 -8 50 -14 62c-27 55 -84 79 -142 79c-112 0 -152 -79 -161 -119c-2 -8 -3 -19 -3 -38l-70 19c20 76 52 139 128 171c19 8 54 20 106 20c54 0 113 -15 156 -50c61 -49 63 -121 63 -146c0 -60 -23 -114 -80 -138
c-23 -10 -51 -14 -74 -17c40 -2 65 -11 80 -18c35 -16 89 -59 89 -154z" />
    <glyph glyph-name="four" unicode="4" horiz-adv-x="583" 
d="M542 177h-110v-177h-61v177h-315v51l310 478h66v-474h110v-55zM371 232v375l-246 -375h246z" />
    <glyph glyph-name="five" unicode="5" horiz-adv-x="583" 
d="M524 242c0 -15 0 -48 -11 -86c-9 -33 -42 -123 -143 -157c-14 -5 -43 -13 -83 -13c-22 0 -88 0 -146 41c-31 23 -75 68 -88 159l65 19c0 -15 2 -28 3 -33c3 -13 13 -57 45 -88c33 -31 74 -42 119 -42c28 0 52 4 78 16c94 45 95 157 95 182c0 61 -16 125 -68 164
c-16 12 -49 32 -99 32c-22 0 -61 -3 -100 -39c-5 -4 -17 -15 -27 -30c-9 -15 -18 -33 -26 -66l-51 6l12 399h373v-59h-315l-14 -243c12 26 31 41 39 48c21 16 55 37 118 37c65 0 124 -24 167 -74c24 -28 57 -83 57 -173z" />
    <glyph glyph-name="six" unicode="6" horiz-adv-x="583" 
d="M542 228c0 -21 -1 -71 -28 -124c-57 -110 -174 -117 -211 -117c-76 0 -120 26 -145 46c-62 49 -101 135 -101 298c0 101 12 217 76 299c49 63 110 90 190 90c14 0 47 -1 83 -13c41 -14 99 -47 129 -143l-66 -23c0 4 -4 35 -15 57c-34 66 -111 66 -129 66
c-77 0 -112 -31 -134 -56c-26 -31 -47 -71 -61 -155c-7 -40 -8 -55 -9 -77c26 40 62 62 76 70c20 11 59 27 116 27c22 0 91 -3 147 -48c11 -9 27 -22 44 -51c37 -60 38 -122 38 -146zM476 235c0 25 -4 53 -12 76c-23 71 -83 108 -156 108c-10 0 -36 -2 -63 -10
c-70 -22 -101 -75 -110 -100c-5 -12 -11 -30 -11 -60c0 -18 2 -51 19 -93c15 -38 53 -114 162 -114c46 0 83 9 116 42c26 25 57 70 55 151z" />
    <glyph glyph-name="seven" unicode="7" horiz-adv-x="583" 
d="M511 647c-55 -75 -87 -127 -106 -163c-114 -208 -131 -394 -141 -484h-67c11 174 67 341 154 490c31 54 67 106 103 157h-334v-158h-57v217h448v-59z" />
    <glyph glyph-name="eight" unicode="8" horiz-adv-x="583" 
d="M538 193c0 -43 -14 -75 -21 -89c-26 -51 -90 -117 -224 -117c-84 0 -169 27 -217 102c-11 17 -31 55 -31 108c0 21 2 62 34 105c12 17 51 59 111 74c-7 2 -23 8 -40 19c-24 16 -78 58 -78 139c0 12 2 47 19 81c23 46 82 105 203 105c23 0 143 -1 198 -91
c24 -38 26 -76 26 -92s-1 -63 -32 -103c-3 -4 -16 -18 -32 -30c-26 -19 -45 -25 -58 -28c14 -4 26 -8 39 -15c29 -16 103 -67 103 -168zM454 535c-1 55 -35 130 -160 130s-159 -82 -159 -134c0 -20 4 -55 39 -87c45 -42 99 -43 121 -43c10 0 34 0 61 8c25 7 99 37 98 126z
M472 193c1 36 -10 59 -17 72c-43 78 -143 81 -163 81c-89 0 -180 -47 -180 -149c0 -45 18 -85 53 -113c49 -40 107 -40 127 -40c37 0 62 6 76 11c62 21 103 72 104 138z" />
    <glyph glyph-name="nine" unicode="9" horiz-adv-x="583" 
d="M527 373c0 -30 0 -120 -28 -208c-19 -58 -70 -178 -239 -178c-109 0 -178 51 -210 156l69 25c5 -31 9 -58 31 -83c39 -44 94 -43 113 -43c20 0 74 0 119 39c9 7 26 24 40 51c31 60 38 146 41 211c-9 -18 -32 -55 -78 -81c-19 -10 -61 -28 -118 -28c-19 0 -67 2 -115 29
c-107 59 -112 178 -112 212c0 37 5 71 19 105c19 49 76 140 216 140c37 0 132 -4 194 -94c32 -47 58 -125 58 -253zM458 457c1 26 -4 47 -6 56c-8 37 -45 155 -178 155c-45 0 -90 -15 -121 -50c-21 -23 -46 -69 -46 -142c0 -15 0 -81 36 -128c18 -24 60 -58 134 -58
c42 0 71 10 85 17c35 17 70 50 85 87c11 26 11 53 11 63z" />
    <glyph glyph-name="colon" unicode=":" horiz-adv-x="208" 
d="M165 352h-79v116h79v-116zM165 0h-79v116h79v-116z" />
    <glyph glyph-name="semicolon" unicode=";" horiz-adv-x="208" 
d="M165 352h-79v116h79v-116zM165 1c0 -67 -10 -103 -47 -159l-32 23c31 50 38 76 38 135h-38v116h79v-115z" />
    <glyph glyph-name="less" unicode="&#x3c;" horiz-adv-x="724" 
d="M580 20l-466 236v68l466 239v-64l-409 -208l409 -206v-65z" />
    <glyph glyph-name="equal" unicode="=" horiz-adv-x="724" 
d="M625 349h-526v59h526v-59zM625 173h-526v58h526v-58z" />
    <glyph glyph-name="greater" unicode="&#x3e;" horiz-adv-x="724" 
d="M610 257l-465 -240v65l409 208l-409 206v64l465 -236v-67z" />
    <glyph glyph-name="question" unicode="?" horiz-adv-x="479" 
d="M462 525c0 -18 -2 -67 -31 -113c-22 -36 -64 -73 -95 -101c-25 -24 -43 -42 -50 -55c-10 -20 -11 -46 -11 -67v-20h-62v35c0 30 1 58 18 85c7 11 16 21 25 30c21 22 45 43 67 64c40 39 75 83 75 142c0 15 -3 29 -7 43c-11 33 -42 91 -131 91c-9 0 -32 -1 -54 -9
c-54 -21 -78 -72 -78 -126c0 -18 2 -55 25 -97l-75 22c-3 14 -11 44 -11 81c0 14 0 50 17 87c44 96 149 101 178 101s100 -3 154 -66c19 -22 46 -60 46 -127zM284 0h-78v116h78v-116z" />
    <glyph glyph-name="at" unicode="@" horiz-adv-x="896" 
d="M827 424c0 -44 -7 -88 -19 -131c-26 -88 -105 -221 -209 -221c-59 0 -81 39 -80 93c-35 -51 -87 -92 -151 -92c-91 0 -127 79 -127 159c0 90 39 195 114 249c28 20 61 34 95 34c62 0 99 -40 119 -95l16 72h59l-32 -146c-13 -58 -30 -117 -30 -177c0 -22 11 -49 37 -49
c21 0 42 17 56 30c69 62 106 182 106 273c0 156 -103 245 -255 245c-232 0 -412 -208 -412 -434c0 -200 147 -313 338 -313c126 0 249 56 338 145l27 -32c-104 -96 -220 -158 -365 -158c-212 0 -383 136 -383 357c0 255 201 479 461 479c177 0 297 -108 297 -288zM548 352
c0 56 -30 110 -92 110c-98 0 -147 -146 -147 -226c0 -55 25 -109 87 -109c101 0 152 141 152 225z" />
    <glyph glyph-name="A" unicode="A" horiz-adv-x="646" 
d="M635 0h-73l-81 213h-316l-81 -213h-74l288 706h56zM461 267l-136 361l-138 -361h274z" />
    <glyph glyph-name="B" unicode="B" horiz-adv-x="667" 
d="M626 199c0 -31 -6 -125 -96 -172c-59 -31 -135 -27 -198 -27h-251v706h293c15 0 30 0 46 -1c24 -1 101 -4 150 -70c30 -42 33 -87 33 -105c-1 -23 -4 -86 -63 -125c-28 -19 -52 -24 -64 -25c96 -19 150 -83 150 -181zM533 531c0 12 -1 42 -21 69c-36 49 -102 46 -154 46
h-210v-239h199c55 0 123 -2 162 48c17 22 24 49 24 76zM559 197c0 26 -6 88 -71 126c-44 26 -95 26 -144 26h-196v-288h180c61 0 106 0 131 6c32 7 100 37 100 130z" />
    <glyph glyph-name="C" unicode="C" horiz-adv-x="667" 
d="M625 541l-68 -34c-5 26 -15 49 -29 72c-25 39 -69 86 -173 86c-15 0 -66 1 -109 -23c-35 -19 -62 -51 -81 -85c-23 -41 -45 -98 -45 -200c0 -21 0 -69 13 -126c14 -65 56 -189 233 -189c64 0 113 20 153 72c26 34 34 61 38 78l63 -38c-35 -76 -81 -116 -111 -135
c-27 -17 -75 -37 -151 -37c-39 0 -155 4 -231 101c-76 95 -77 239 -77 266c0 34 0 183 87 284c34 40 75 61 92 69c23 10 62 22 122 22c39 0 79 -5 116 -18c82 -28 125 -88 158 -165z" />
    <glyph glyph-name="D" unicode="D" horiz-adv-x="688" 
d="M638 355c0 -38 -4 -174 -93 -272c-11 -12 -44 -46 -91 -64s-92 -19 -189 -19h-184v706h189c25 0 49 0 74 -1c81 -3 140 -14 199 -77c40 -42 95 -130 95 -273zM570 353c0 27 -2 144 -70 225c-9 11 -34 39 -72 53c-39 14 -75 14 -155 14h-124v-585h106c93 0 150 4 188 22
c39 18 64 54 71 65c24 34 56 102 56 206z" />
    <glyph glyph-name="E" unicode="E" horiz-adv-x="604" 
d="M567 0h-486v706h461v-61h-394v-252h357v-62h-357v-269h419v-62z" />
    <glyph glyph-name="F" unicode="F" horiz-adv-x="562" 
d="M543 647h-397v-239h356v-58h-356v-350h-65v706h462v-59z" />
    <glyph glyph-name="G" unicode="G" horiz-adv-x="708" 
d="M627 545l-63 -34c-5 18 -23 84 -75 122c-34 25 -77 36 -119 35c-34 0 -67 -6 -99 -21c-70 -32 -150 -121 -150 -296c0 -174 72 -262 145 -293c16 -7 45 -16 88 -16c29 0 91 1 144 57c35 38 66 98 66 209h-260v61h318v-369h-58v118c-18 -44 -39 -66 -54 -80
c-60 -55 -133 -56 -159 -56c-24 0 -81 2 -139 33c-121 65 -162 205 -162 333c0 39 1 239 153 333c29 18 81 43 164 43c178 0 233 -117 260 -179z" />
    <glyph glyph-name="H" unicode="H" horiz-adv-x="729" 
d="M648 0h-67v331h-434v-331h-66v706h66v-315h434v315h67v-706z" />
    <glyph glyph-name="I" unicode="I" horiz-adv-x="229" 
d="M148 0h-67v706h67v-706z" />
    <glyph glyph-name="J" unicode="J" horiz-adv-x="500" 
d="M419 292c0 -40 0 -79 -2 -118c-2 -51 -9 -98 -46 -137c-9 -10 -27 -27 -58 -39c-20 -8 -45 -14 -91 -14c-37 0 -59 4 -74 8c-29 8 -94 30 -121 109c-13 38 -13 84 -14 93l71 16c-1 -10 -1 -20 -1 -31s-2 -66 32 -100c38 -37 103 -36 113 -36c16 0 72 -1 103 48
c23 36 22 97 22 137v478h66v-414z" />
    <glyph glyph-name="K" unicode="K" horiz-adv-x="667" 
d="M649 0h-82l-264 382l-154 -155v-227h-68v706h68v-394l384 394h92l-276 -280z" />
    <glyph glyph-name="L" unicode="L" horiz-adv-x="562" 
d="M539 0h-458v706h68v-644h390v-62z" />
    <glyph glyph-name="M" unicode="M" horiz-adv-x="792" 
d="M711 0h-66l5 600l-230 -600h-46l-235 600l8 -600h-66v706h79l239 -599l229 599h83v-706z" />
    <glyph glyph-name="N" unicode="N" horiz-adv-x="708" 
d="M627 0h-66l-414 610v-610h-66v706h66l419 -604l-5 604h66v-706z" />
    <glyph glyph-name="O" unicode="O" horiz-adv-x="708" 
d="M658 357c0 -89 -24 -197 -80 -271c-14 -18 -51 -62 -111 -85c-22 -8 -56 -19 -111 -19c-82 0 -148 23 -205 82c-45 47 -101 137 -101 291c0 38 1 180 94 281c14 15 46 48 97 68c22 9 60 20 115 20c48 0 160 -6 236 -118c29 -42 67 -125 66 -249zM587 357
c1 27 -1 151 -71 236c-8 9 -30 34 -62 51c-17 9 -48 22 -98 22c-175 0 -235 -169 -235 -313c0 -25 1 -172 87 -255c41 -39 90 -56 145 -56c62 0 111 18 152 64c79 86 82 226 82 251z" />
    <glyph glyph-name="P" unicode="P" horiz-adv-x="625" 
d="M613 513c0 -45 -12 -91 -40 -128c-20 -26 -41 -37 -52 -43c-50 -24 -108 -24 -220 -24h-156v-318h-64v706h242c41 0 82 1 124 -3c49 -4 87 -15 120 -53c19 -22 46 -66 46 -137zM548 514c0 12 0 47 -20 80c-33 54 -83 54 -138 55c-25 0 -50 1 -74 1h-171v-273h151
c31 0 61 1 91 1c50 1 98 3 132 45c14 17 29 42 29 91z" />
    <glyph glyph-name="Q" unicode="Q" horiz-adv-x="708" 
d="M695 29l-42 -45l-89 82c-33 -33 -94 -84 -208 -84c-101 0 -158 38 -189 65c-114 98 -117 261 -117 299c0 144 52 236 90 280c8 9 27 30 54 48c50 35 107 50 168 50c71 0 133 -19 185 -66c111 -100 113 -258 113 -297c0 -41 -2 -143 -60 -244zM592 346c0 28 0 140 -57 226
c-9 14 -36 52 -80 74c-17 8 -49 20 -96 20c-56 0 -91 -16 -111 -28c-96 -58 -128 -187 -128 -290c0 -25 2 -133 56 -215c12 -18 24 -31 40 -45c22 -20 66 -49 140 -49c36 0 118 6 176 88c43 61 59 146 60 219z" />
    <glyph glyph-name="R" unicode="R" horiz-adv-x="646" 
d="M621 0h-84l-223 313h-165v-313h-68v706h199c39 0 79 1 119 -1c28 -2 125 -7 175 -94c10 -18 27 -54 27 -107c0 -84 -44 -150 -123 -176c-20 -7 -42 -12 -86 -15zM535 507c0 13 -1 47 -21 79c-33 55 -90 60 -147 60h-218v-275h166c18 0 37 0 56 1c51 2 105 5 139 52
c11 15 25 40 25 83z" />
    <glyph glyph-name="S" unicode="S" horiz-adv-x="604" 
d="M575 193c0 -37 -11 -106 -87 -161c-33 -23 -84 -50 -176 -50c-135 0 -234 58 -263 196l67 35c2 -42 7 -60 16 -79c20 -44 73 -93 180 -93c14 0 45 0 80 10c65 20 115 69 115 140c0 11 -1 40 -19 68c-24 38 -64 55 -146 77c-51 13 -107 25 -155 48
c-32 16 -102 56 -102 157c0 55 20 87 34 105c62 79 180 78 199 78c77 0 151 -21 202 -82c13 -16 26 -34 41 -73l-62 -33c-7 22 -15 42 -29 61c-20 29 -68 72 -154 72c-14 0 -89 -1 -133 -45c-13 -13 -33 -36 -33 -81c0 -25 7 -47 21 -66c31 -41 83 -54 129 -66
c66 -18 155 -36 209 -80c22 -18 66 -61 66 -138z" />
    <glyph glyph-name="T" unicode="T" horiz-adv-x="542" 
d="M527 647h-223v-647h-67v647h-222v59h512v-59z" />
    <glyph glyph-name="U" unicode="U" horiz-adv-x="688" 
d="M608 385c0 -49 0 -97 -2 -146c-2 -65 -11 -126 -55 -178c-32 -37 -92 -79 -205 -79c-26 0 -112 1 -181 55c-10 8 -33 28 -51 58c-37 65 -34 137 -34 284v327h66v-458c0 -38 3 -80 21 -116c18 -37 48 -54 61 -61c37 -20 76 -27 117 -27c18 0 106 0 156 59
c40 48 40 111 40 168v435h67v-321z" />
    <glyph glyph-name="V" unicode="V" horiz-adv-x="604" 
d="M594 706l-265 -706h-60l-259 706h74l217 -614l222 614h71z" />
    <glyph glyph-name="W" unicode="W" horiz-adv-x="875" 
d="M864 706l-201 -706h-54l-169 571l-168 -571h-53l-209 706h72l166 -586l168 586h46l174 -586l161 586h67z" />
    <glyph glyph-name="X" unicode="X" horiz-adv-x="667" 
d="M646 0h-83l-228 338l-237 -338h-77l268 380l-231 326h85l192 -285l196 285h81l-232 -326z" />
    <glyph glyph-name="Y" unicode="Y" horiz-adv-x="625" 
d="M615 706l-276 -414v-292h-66v292l-263 414h79l218 -351l227 351h81z" />
    <glyph glyph-name="Z" unicode="Z" horiz-adv-x="583" 
d="M554 660l-430 -600h424v-60h-519v44l435 602h-409v60h499v-46z" />
    <glyph glyph-name="bracketleft" unicode="[" horiz-adv-x="271" 
d="M244 -144h-170v923h170v-51h-109v-822h109v-50z" />
    <glyph glyph-name="backslash" unicode="\" horiz-adv-x="479" 
d="M469 0h-74l-385 706h76z" />
    <glyph glyph-name="bracketright" unicode="]" horiz-adv-x="271" 
d="M196 -143h-170v50h109v823h-109v50h170v-923z" />
    <glyph glyph-name="asciicircum" unicode="^" horiz-adv-x="724" 
d="M596 289h-64l-170 360l-170 -360h-64l199 417h68z" />
    <glyph glyph-name="underscore" unicode="_" horiz-adv-x="500" 
d="M510 -206h-520v59h520v-59z" />
    <glyph glyph-name="quoteleft" unicode="&#x2018;" horiz-adv-x="167" 
d="M122 432h-78v93c0 73 4 119 46 181l32 -22c-30 -50 -38 -76 -38 -135h38v-117z" />
    <glyph glyph-name="a" unicode="a" horiz-adv-x="500" 
d="M492 0c-56 0 -87 5 -107 25c-19 19 -20 39 -21 62c-6 -15 -14 -29 -25 -41c-19 -22 -69 -56 -144 -56c-61 0 -94 21 -114 41c-12 12 -36 43 -36 89c0 14 2 46 26 75c36 44 95 58 147 73c30 8 60 17 90 23l56 12v25c0 18 1 28 -5 46c-10 31 -37 64 -109 63
c-61 0 -92 -17 -108 -41c-15 -23 -17 -48 -18 -74l-65 11c2 10 8 51 28 83c22 33 69 73 159 73c48 0 113 -12 146 -51c32 -38 29 -89 29 -135v-153c0 -46 -1 -78 16 -92c15 -12 39 -11 55 -11v-47zM364 216v36l-30 -8c-93 -25 -173 -44 -202 -65c-18 -13 -30 -35 -30 -58
c0 -16 7 -30 9 -34c22 -44 76 -45 87 -45c58 0 129 35 153 90c9 20 13 40 13 84z" />
    <glyph glyph-name="b" unicode="b" 
d="M477 231c0 -20 -1 -107 -48 -171c-15 -21 -32 -34 -40 -39c-18 -13 -52 -32 -108 -32c-19 0 -54 1 -93 27c-7 4 -23 16 -37 36c-8 10 -14 21 -19 33v-85h-57v706h57v-310c3 7 7 13 11 20c16 24 58 71 135 71c67 0 104 -30 123 -48c55 -53 76 -134 76 -208zM414 229
c0 14 0 49 -10 87c-25 98 -91 118 -135 118c-36 0 -59 -12 -71 -20c-38 -25 -66 -77 -66 -174c0 -44 6 -72 11 -90c8 -29 35 -108 131 -108c21 0 73 3 107 53c15 23 32 68 33 134z" />
    <glyph glyph-name="c" unicode="c" horiz-adv-x="479" 
d="M454 106c-13 -27 -29 -51 -52 -71c-22 -20 -66 -47 -139 -47c-26 0 -91 2 -146 54c-71 67 -73 166 -73 193c0 36 4 66 15 99c31 98 111 155 214 155c76 0 116 -29 139 -53c27 -28 37 -53 42 -67l-55 -13c-21 53 -73 80 -129 80c-18 0 -60 -2 -99 -35
c-62 -53 -63 -142 -63 -163c0 -14 2 -96 45 -149c7 -8 21 -23 47 -35c12 -6 33 -14 65 -14c60 0 101 28 129 80z" />
    <glyph glyph-name="d" unicode="d" 
d="M446 0h-58v86c-22 -63 -83 -97 -147 -97c-18 0 -59 3 -99 30c-96 63 -98 196 -98 220c0 29 4 157 103 219c17 11 53 29 103 29c39 0 78 -12 106 -38c22 -21 27 -35 32 -48v305h58v-706zM389 235c1 96 -17 145 -57 174c-13 9 -40 24 -79 24c-12 0 -36 0 -62 -14
c-41 -22 -83 -76 -83 -180c0 -16 -2 -194 142 -194c37 0 67 10 93 36c39 41 45 102 46 154z" />
    <glyph glyph-name="e" unicode="e" 
d="M479 126c-5 -10 -17 -37 -37 -62c-26 -31 -73 -76 -170 -76c-17 0 -65 1 -110 25c-114 59 -118 199 -118 230c0 16 0 55 15 97c31 90 109 149 205 149c29 0 98 -6 153 -68c38 -43 62 -110 62 -168v-15h-370c-1 -39 4 -63 9 -80c10 -38 44 -117 153 -116
c42 0 108 10 153 100zM411 287c-14 123 -96 149 -148 149c-83 0 -122 -57 -135 -83c-9 -20 -15 -45 -18 -66h301z" />
    <glyph glyph-name="f" unicode="f" horiz-adv-x="313" 
d="M295 427h-108v-427h-59v427h-105v50h105v91c0 51 -2 65 6 92c10 30 33 60 100 60c23 0 39 -3 61 -7v-58c-10 4 -29 13 -57 13c-20 0 -29 -6 -35 -13c-19 -19 -16 -38 -16 -82v-96h108v-50z" />
    <glyph glyph-name="g" unicode="g" horiz-adv-x="542" 
d="M466 51c0 -39 1 -77 -2 -115c-1 -17 -3 -82 -47 -126c-26 -27 -78 -54 -163 -54c-24 0 -137 0 -185 91c-17 32 -20 67 -21 79l62 11c8 -53 23 -130 152 -130c17 0 97 -2 129 65c16 34 15 70 17 144c0 17 1 35 1 52v24c-1 -3 -5 -17 -10 -27c-17 -31 -63 -75 -148 -75
c-48 0 -81 15 -97 24c-108 60 -110 200 -110 227c0 83 26 173 101 218c18 11 54 28 107 28c19 0 70 -1 115 -38c19 -15 30 -31 34 -39c5 -10 7 -17 8 -21v88h57v-426zM407 234c0 10 4 97 -33 150c-15 21 -50 52 -115 52c-9 0 -32 0 -55 -9c-101 -39 -100 -164 -100 -185
c0 -70 20 -118 36 -141c14 -21 35 -39 59 -48c25 -10 47 -10 57 -10c15 0 55 0 91 26c51 37 59 107 60 165z" />
    <glyph glyph-name="h" unicode="h" 
d="M445 0h-58v260c0 15 -1 30 -1 46c-1 47 -7 93 -55 116c-18 8 -36 11 -56 11c-73 0 -106 -41 -120 -67c-19 -38 -20 -77 -20 -160v-206h-60v706h60v-305c1 3 8 16 16 26c17 23 58 60 132 60c21 0 90 -4 131 -59c27 -36 31 -75 31 -159v-269z" />
    <glyph glyph-name="i" unicode="i" horiz-adv-x="208" 
d="M133 589h-58v91h58v-91zM133 0h-58v477h58v-477z" />
    <glyph glyph-name="j" unicode="j" horiz-adv-x="208" 
d="M133 589h-58v91h58v-91zM133 58c0 -56 0 -111 -1 -167c0 -54 -2 -84 -15 -107c-10 -18 -32 -40 -79 -40c-16 0 -49 1 -86 20l1 56l9 -6c28 -15 58 -18 69 -18c4 0 25 0 35 14c5 7 6 17 6 19c3 15 1 59 2 106c0 44 1 88 1 132v410h58v-419z" />
    <glyph glyph-name="k" unicode="k" horiz-adv-x="500" 
d="M489 0h-72l-182 247l-102 -97v-150h-58v706h58v-480l268 251h74l-199 -190z" />
    <glyph glyph-name="l" unicode="l" horiz-adv-x="208" 
d="M134 0h-60v706h60v-706z" />
    <glyph glyph-name="m" unicode="m" horiz-adv-x="771" 
d="M696 0h-59v259c0 82 4 128 -33 157c-23 17 -49 17 -59 17c-53 0 -90 -30 -112 -77c-18 -38 -19 -75 -19 -157v-199h-58v265c0 63 -1 101 -15 127c-16 29 -46 41 -77 41c-26 0 -75 -7 -106 -64c-23 -43 -24 -85 -24 -177v-192h-59v477h59v-99c1 6 5 23 13 38
c26 49 76 71 129 71c76 0 110 -45 121 -72c4 -10 8 -23 10 -47c7 26 13 38 19 48c15 28 52 71 130 71c30 0 61 -6 86 -24c56 -39 54 -107 54 -228v-235z" />
    <glyph glyph-name="n" unicode="n" 
d="M446 0h-59v248c0 64 0 102 -11 130c-10 25 -27 36 -36 41c-27 16 -54 15 -65 15s-37 -1 -63 -13c-35 -17 -63 -55 -72 -91c-5 -23 -6 -64 -6 -121v-209h-59v477h59v-85c4 12 11 31 34 53c19 18 53 42 116 42c89 0 130 -49 145 -82c18 -38 17 -76 17 -157v-248z" />
    <glyph glyph-name="o" unicode="o" 
d="M477 241c0 -16 0 -54 -13 -96c-30 -96 -105 -157 -206 -157c-33 0 -109 6 -165 80c-21 29 -49 80 -49 165c0 21 1 68 22 121c47 121 149 135 196 135c55 0 100 -16 140 -53c53 -51 74 -124 75 -195zM414 235c2 155 -77 204 -153 204c-15 0 -52 -2 -86 -27
c-37 -28 -68 -80 -68 -179c0 -18 -2 -114 63 -165c15 -12 43 -28 89 -28c70 0 154 44 155 195z" />
    <glyph glyph-name="p" unicode="p" 
d="M477 237c0 -16 -1 -44 -10 -82c-9 -35 -51 -166 -190 -166c-75 0 -115 41 -131 66c-5 7 -7 11 -13 25v-333h-58v730h58v-78c7 16 12 24 18 31c17 23 56 57 126 57c51 0 81 -14 99 -25c73 -46 101 -145 101 -225zM416 245c0 15 -1 47 -13 84c-29 91 -99 104 -136 104
c-21 0 -44 -5 -62 -15c-36 -20 -57 -61 -65 -99c-5 -25 -6 -49 -7 -74c-2 -60 1 -129 52 -171c32 -27 67 -28 83 -28c110 0 148 107 148 199z" />
    <glyph glyph-name="q" unicode="q" horiz-adv-x="500" 
d="M445 -253h-57v335c-8 -18 -12 -24 -18 -33c-41 -55 -108 -60 -128 -60c-17 0 -58 3 -98 29c-43 28 -100 99 -100 224c0 23 0 129 69 194c19 18 63 51 131 51c47 0 97 -17 127 -54c9 -12 12 -19 17 -32v76h57v-730zM389 238c0 58 -5 128 -56 168c-13 10 -39 27 -81 27
c-65 0 -98 -38 -112 -57c-26 -37 -35 -89 -35 -132c0 -33 5 -59 8 -71c17 -69 64 -129 141 -129c39 0 63 15 75 25c53 40 59 109 60 169z" />
    <glyph glyph-name="r" unicode="r" horiz-adv-x="313" 
d="M306 482l-1 -53c-12 2 -23 3 -37 3c-73 0 -118 -43 -129 -113c-4 -25 -5 -57 -5 -113v-206h-59v477h59v-76c3 8 8 17 13 24c6 9 26 34 56 47c13 6 34 12 68 12c8 0 18 0 35 -2z" />
    <glyph glyph-name="s" unicode="s" horiz-adv-x="458" 
d="M404 135c0 -10 -1 -37 -15 -64c-19 -36 -67 -83 -163 -83c-29 0 -107 4 -160 72c-15 19 -23 36 -32 56l58 20c8 -33 44 -94 133 -94c45 0 74 13 88 24c21 16 34 44 34 69c0 15 -5 30 -13 42c-15 21 -39 33 -90 44c-47 11 -121 19 -155 60c-16 20 -26 49 -25 75
c0 15 5 61 41 93c32 30 88 40 130 40c14 0 73 0 117 -31c37 -26 48 -61 52 -77l-56 -15c-11 55 -68 71 -116 71c-39 0 -65 -9 -78 -18c-4 -2 -14 -10 -21 -21c-10 -17 -11 -34 -11 -41c0 -56 59 -69 100 -77l50 -10c43 -9 83 -25 109 -62c22 -30 23 -59 23 -73z" />
    <glyph glyph-name="t" unicode="t" horiz-adv-x="292" 
d="M277 13c-13 -9 -37 -22 -76 -22c-5 0 -11 0 -16 1c-13 1 -49 4 -63 42c-8 21 -7 72 -7 95v298h-100v50h100v203h57v-203h105v-50h-105v-263v-51c-1 -28 -1 -70 39 -70c24 0 48 17 66 30v-60z" />
    <glyph glyph-name="u" unicode="u" 
d="M446 0h-59v86c-8 -18 -14 -28 -19 -35c-44 -61 -108 -62 -133 -62c-8 0 -32 1 -56 9c-43 14 -77 49 -91 92c-10 33 -13 78 -13 153v234h60v-247c0 -58 1 -89 8 -116c8 -29 29 -70 99 -70c24 0 75 1 113 53c36 49 32 113 32 171v209h59v-477z" />
    <glyph glyph-name="v" unicode="v" horiz-adv-x="417" 
d="M406 477l-183 -477h-48l-165 477h59l132 -388l147 388h58z" />
    <glyph glyph-name="w" unicode="w" horiz-adv-x="688" 
d="M667 477l-151 -477h-49l-118 393l-117 -393h-50l-161 477h57l128 -385l117 385h50l118 -385l119 385h57z" />
    <glyph glyph-name="x" unicode="x" horiz-adv-x="458" 
d="M436 0h-67l-140 203l-145 -203h-63l175 248l-161 229h69l125 -182l129 182h63l-160 -229z" />
    <glyph glyph-name="y" unicode="y" horiz-adv-x="437" 
d="M427 477l-215 -546c-45 -114 -62 -173 -138 -173c-33 0 -53 12 -63 19v60c27 -19 46 -23 62 -23c34 0 43 22 64 72c6 15 13 30 19 45l25 69l-165 477h57l139 -406l155 406h60z" />
    <glyph glyph-name="z" unicode="z" horiz-adv-x="396" 
d="M376 0h-348v37l258 389h-236v51h319v-35l-258 -389h265v-53z" />
    <glyph glyph-name="braceleft" unicode="{" horiz-adv-x="268" 
d="M255 -148l-29 1c-46 2 -73 10 -94 35c-10 12 -18 27 -22 43c-5 22 -7 38 -7 83v6l1 166c0 40 -2 59 -10 73c-11 20 -32 29 -75 33v51c30 3 41 6 56 15c23 13 29 33 29 91l-1 167v5c0 46 1 61 7 84c12 51 51 78 116 78h29v-49h-17c-31 0 -45 -4 -56 -16
c-6 -6 -10 -14 -12 -22c-4 -15 -5 -22 -5 -70v-174c0 -82 -16 -110 -81 -135c23 -7 32 -11 47 -24c26 -24 34 -50 34 -110v-174c0 -46 1 -55 5 -70c7 -27 26 -38 68 -38h17v-49z" />
    <glyph glyph-name="bar" unicode="|" horiz-adv-x="229" 
d="M144 -143h-61v921h61v-921z" />
    <glyph glyph-name="braceright" unicode="}" horiz-adv-x="268" 
d="M248 292c-30 -3 -41 -6 -56 -15c-22 -13 -29 -33 -29 -91l1 -167v-5c0 -46 -1 -61 -7 -84c-13 -51 -51 -78 -116 -78h-29v49h18c30 0 44 4 55 16c6 6 10 14 12 22c4 15 5 21 5 70v174c0 82 16 110 81 135c-23 7 -32 11 -46 24c-27 24 -35 50 -35 110v173
c0 47 -1 56 -5 71c-7 27 -26 38 -67 38h-18v49l29 -1c46 -2 73 -10 94 -35c11 -12 18 -27 22 -43c6 -22 7 -38 7 -83v-6l-1 -166c0 -40 2 -59 10 -73c11 -20 32 -30 75 -33v-51z" />
    <glyph glyph-name="asciitilde" unicode="~" horiz-adv-x="724" 
d="M650 318c-31 -38 -45 -52 -72 -70c-31 -20 -60 -29 -93 -29c-22 0 -38 3 -65 14c-18 7 -34 13 -54 23l-36 18c-46 23 -75 30 -104 30c-12 0 -23 -2 -33 -6c-23 -9 -34 -25 -68 -62l-10 -11l-40 41c24 34 34 45 53 62c29 25 66 39 104 39c14 0 28 -2 42 -5
c25 -6 42 -13 96 -37l41 -18c46 -20 60 -25 79 -25c22 0 47 9 66 23c18 13 27 22 54 54z" />
    <glyph glyph-name="exclamdown" unicode="&#xa1;" horiz-adv-x="208" 
d="M122 596h-75v116h75v-116zM117 0h-65v405l9 131h47l9 -131v-405z" />
    <glyph glyph-name="cent" unicode="&#xa2;" horiz-adv-x="479" 
d="M454 107c-4 -9 -8 -19 -21 -38c-27 -38 -69 -73 -143 -80v-102h-50v102c-144 15 -197 137 -196 251c2 169 110 236 196 247v93h50v-92c14 0 99 -3 150 -87c8 -14 12 -27 14 -32l-55 -14c-25 69 -98 78 -109 80v-393c62 11 86 47 104 78zM240 42v391
c-104 -22 -131 -118 -132 -192c0 -1 -4 -116 64 -170c28 -23 60 -27 68 -29z" />
    <glyph glyph-name="sterling" unicode="&#xa3;" horiz-adv-x="604" 
d="M565 181c-1 -7 1 -90 -32 -137c-13 -19 -44 -47 -102 -47c-60 0 -102 27 -154 53c-36 -37 -75 -55 -129 -55c-80 0 -106 44 -106 80c0 33 25 76 98 76c13 0 67 -4 110 -28c15 33 19 59 19 73c0 22 -6 52 -40 86h-132v52h93c-7 6 -14 11 -20 18c-19 17 -45 47 -60 67
c-9 12 -18 27 -24 40c-5 10 -15 35 -15 67s9 62 27 88c25 38 86 92 196 92c20 0 104 -3 163 -53c18 -15 31 -31 42 -52c10 -19 17 -40 23 -84l-66 -13c-1 22 -3 41 -12 61c-16 34 -61 81 -152 81c-12 0 -31 0 -58 -8c-51 -15 -94 -53 -94 -111c0 -7 0 -20 6 -37
c4 -11 17 -37 38 -61c11 -12 23 -24 35 -35c20 -20 40 -39 58 -60h152v-52h-121c9 -14 27 -45 27 -90c0 -13 -2 -53 -26 -88c20 -11 34 -19 75 -35c4 -2 30 -13 52 -13c7 0 24 0 38 14c22 22 24 58 25 118zM229 74c-16 10 -44 25 -89 25c-15 0 -19 0 -27 -3
c-15 -6 -19 -17 -19 -23c0 -5 1 -9 4 -13c10 -14 29 -16 44 -16c12 0 55 1 87 30z" />
    <glyph glyph-name="yen" unicode="&#xa5;" horiz-adv-x="625" 
d="M615 706l-205 -307h157v-56h-194l-34 -53h228v-56h-228v-234h-66v234h-215v56h215l-32 53h-183v56h147l-195 307h79l218 -348l227 348h81z" />
    <glyph glyph-name="florin" unicode="&#x192;" horiz-adv-x="333" 
d="M341 704l-14 -57c-6 1 -25 6 -31 6c-47 0 -52 -48 -59 -78l-25 -104h85l-11 -45h-84l-140 -573c-4 -15 -26 -97 -101 -97c-24 0 -45 8 -53 12l15 55c6 -2 18 -8 33 -8c40 0 47 47 52 69l132 542h-73l11 45h72l33 132c14 57 35 111 106 111c17 0 36 -5 52 -10z" />
    <glyph glyph-name="section" unicode="&#xa7;" 
d="M474 356c0 -75 -39 -124 -104 -157c51 -29 81 -63 81 -124c0 -104 -93 -157 -187 -157c-85 0 -166 37 -225 98l47 46c46 -47 116 -81 183 -81c56 0 115 29 115 92c0 62 -75 85 -121 105c-32 14 -64 29 -95 46c-62 33 -118 73 -118 151c0 71 48 133 115 155
c-42 28 -70 60 -70 113c0 18 5 36 12 53c26 60 82 87 145 87c77 0 134 -37 190 -86l-46 -45c-44 37 -87 70 -148 70c-49 0 -87 -27 -87 -79c0 -117 313 -98 313 -287zM410 350c0 27 -9 46 -27 66c-29 31 -125 68 -167 83c-49 -21 -101 -64 -101 -122c0 -23 7 -37 22 -53
c27 -30 144 -84 185 -97c40 22 88 75 88 123z" />
    <glyph glyph-name="currency" unicode="&#xa4;" horiz-adv-x="667" 
d="M610 569l-74 -74c37 -48 54 -97 54 -156s-16 -104 -55 -157l74 -75l-46 -45l-74 75c-51 -39 -94 -54 -157 -54c-61 0 -99 13 -155 54l-75 -73l-45 45l75 73c-40 55 -55 98 -55 159c0 60 15 102 55 155l-73 73l45 45l73 -72c52 38 97 54 156 54c61 0 118 -20 157 -54
l74 73zM527 339c0 114 -82 198 -193 198c-110 0 -195 -86 -195 -197c0 -113 85 -198 198 -198c108 0 190 85 190 197z" />
    <glyph glyph-name="quotesingle" unicode="'" horiz-adv-x="185" 
d="M134 743l-26 -291h-30l-27 291h83z" />
    <glyph glyph-name="quotedblleft" unicode="&#x201c;" horiz-adv-x="292" 
d="M248 432h-79v111c0 65 9 108 46 163l33 -22c-31 -50 -38 -76 -38 -135h38v-117zM123 432h-79v93c0 74 4 118 46 181l33 -22c-30 -37 -39 -88 -39 -135h39v-117z" />
    <glyph glyph-name="guillemotleft" unicode="&#xab;" horiz-adv-x="375" 
d="M339 168l-47 -31l-119 172l119 185l47 -30l-99 -155zM204 168l-48 -31l-118 172l118 185l48 -30l-100 -155z" />
    <glyph glyph-name="guilsinglleft" unicode="&#x2039;" horiz-adv-x="250" 
d="M209 168l-47 -31l-119 172l119 185l47 -30l-99 -155z" />
    <glyph glyph-name="guilsinglright" unicode="&#x203a;" horiz-adv-x="250" 
d="M207 322l-119 -185l-47 30l99 155l-99 141l47 31z" />
    <glyph glyph-name="endash" unicode="&#x2013;" horiz-adv-x="565" 
d="M527 264h-489v60h489v-60z" />
    <glyph glyph-name="dagger" unicode="&#x2020;" horiz-adv-x="562" 
d="M474 440h-157v-440h-68v440h-160v59h160v207h68v-207h157v-59z" />
    <glyph glyph-name="daggerdbl" unicode="&#x2021;" horiz-adv-x="562" 
d="M474 213h-157v-213h-68v213h-160v59h160v180h-160v59h160v195h68v-195h157v-59h-157v-180h157v-59z" />
    <glyph glyph-name="periodcentered" unicode="&#xb7;" horiz-adv-x="187" 
d="M134 236h-81v108h81v-108z" />
    <glyph glyph-name="paragraph" unicode="&#xb6;" horiz-adv-x="643" 
d="M518 662h-33v-829h-46v829h-157v-829h-46v498c-25 3 -32 5 -47 10c-68 24 -110 91 -110 172c0 55 18 102 53 137c40 40 86 56 165 56h221v-44z" />
    <glyph glyph-name="bullet" unicode="&#x2022;" horiz-adv-x="333" 
d="M277 247h-221l1 218h220v-218z" />
    <glyph glyph-name="quotesinglbase" unicode="&#x201a;" horiz-adv-x="167" 
d="M123 18c0 -73 -4 -114 -46 -176l-33 23c31 50 38 77 38 135h-38v116h79v-98z" />
    <glyph glyph-name="quotedblbase" unicode="&#x201e;" horiz-adv-x="292" 
d="M248 -4c0 -65 -11 -100 -46 -154l-33 23c7 8 11 18 16 27c19 39 22 65 22 108h-38v116h79v-120zM123 15c0 -48 -3 -96 -26 -139c-6 -12 -14 -22 -20 -34l-33 23c31 50 38 76 38 135h-38v116h79v-101z" />
    <glyph glyph-name="quotedblright" unicode="&#x201d;" horiz-adv-x="292" 
d="M248 586c0 -65 -10 -100 -46 -154l-33 23c7 8 11 18 16 27c19 38 22 66 22 108h-38v116h79v-120zM123 606c0 -48 -3 -97 -26 -140c-6 -12 -14 -22 -20 -34l-33 23c31 50 38 76 38 135h-38v116h79v-100z" />
    <glyph glyph-name="guillemotright" unicode="&#xbb;" horiz-adv-x="375" 
d="M337 322l-118 -185l-48 30l99 155l-99 141l48 31zM202 322l-119 -185l-47 30l99 155l-99 141l47 31z" />
    <glyph glyph-name="ellipsis" unicode="&#x2026;" horiz-adv-x="1000" 
d="M875 0h-83v82h83v-82zM541 0h-83v82h83v-82zM207 0h-82v82h82v-82z" />
    <glyph glyph-name="perthousand" unicode="&#x2030;" horiz-adv-x="1250" 
d="M1219 222c0 -36 -4 -71 -14 -106c-10 -33 -43 -125 -145 -124c-95 0 -156 88 -154 236c2 146 68 222 158 221c133 -1 155 -148 155 -227zM844 222c0 -36 -4 -71 -14 -106c-10 -33 -43 -125 -144 -124c-96 0 -157 88 -155 236c2 146 68 222 158 221
c133 -1 155 -148 155 -227zM638 730l-353 -769l-40 18l351 770zM344 487c0 -36 -4 -71 -14 -106c-9 -33 -44 -125 -145 -124c-133 1 -156 159 -154 235c3 147 68 223 158 222c133 -1 155 -148 155 -227zM1168 213c0 27 -2 54 -7 81c-9 47 -34 111 -96 112
c-71 2 -106 -77 -108 -178c-1 -52 5 -192 107 -191c96 1 103 126 104 176zM793 213c0 27 -2 54 -7 81c-9 47 -34 111 -96 112c-71 2 -106 -77 -108 -178c-1 -52 5 -192 107 -191c96 1 103 126 104 176zM293 477c0 28 -2 55 -7 82c-9 46 -34 110 -96 111
c-73 2 -108 -81 -108 -184c0 -53 8 -185 107 -184c95 0 103 126 104 175z" />
    <glyph glyph-name="questiondown" unicode="&#xbf;" horiz-adv-x="479" 
d="M273 590h-78v116h78v-116zM413 177c0 -14 -1 -51 -18 -88c-44 -95 -149 -101 -177 -101c-30 0 -101 4 -155 67c-19 21 -46 60 -46 126c0 18 2 68 31 113c23 36 64 73 95 101c25 24 44 42 51 55c10 20 10 46 10 68v19h62v-35c0 -30 -1 -58 -18 -84c-7 -12 -16 -21 -25 -31
c-21 -22 -45 -42 -67 -64c-40 -38 -74 -82 -74 -142c0 -15 2 -29 6 -42c11 -33 42 -92 132 -92c9 0 31 1 53 9c54 20 78 72 78 127c0 18 -2 55 -25 96l75 -22c3 -13 12 -43 12 -80z" />
    <glyph glyph-name="grave" unicode="`" horiz-adv-x="271" 
d="M248 558h-53l-172 140h112z" />
    <glyph glyph-name="acute" unicode="&#xb4;" horiz-adv-x="271" 
d="M247 698l-170 -140h-53l112 140h111z" />
    <glyph glyph-name="circumflex" unicode="&#x2c6;" horiz-adv-x="271" 
d="M280 558h-51l-98 65l-89 -65h-51l128 138h26z" />
    <glyph glyph-name="tilde" unicode="&#x2dc;" horiz-adv-x="271" 
d="M292 665c-21 -47 -35 -67 -59 -80c-6 -3 -20 -10 -36 -10c-30 1 -64 20 -87 32c-21 10 -32 16 -43 16c-6 0 -13 -2 -18 -5c-12 -7 -16 -15 -27 -37l-43 9c11 26 18 39 26 50c17 22 42 39 68 38c23 0 42 -8 79 -28c15 -8 33 -18 50 -18c9 0 18 4 20 5c17 9 22 24 29 38z
" />
    <glyph glyph-name="macron" unicode="&#xaf;" horiz-adv-x="271" 
d="M252 582h-233v62h233v-62z" />
    <glyph glyph-name="dieresis" unicode="&#xa8;" horiz-adv-x="271" 
d="M252 582h-61v92h61v-92zM80 582h-61v92h61v-92z" />
    <glyph glyph-name="cedilla" unicode="&#xb8;" horiz-adv-x="271" 
d="M205 -108c0 -56 -53 -82 -102 -82c-12 0 -25 2 -37 3v27c11 -1 22 -2 32 -2c40 0 56 20 56 40c0 16 -14 37 -50 37c-9 0 -20 -1 -38 -10v25l41 70h24l-24 -47c4 1 16 3 29 3c39 -1 69 -23 69 -64z" />
    <glyph glyph-name="emdash" unicode="&#x2014;" horiz-adv-x="843" 
d="M805 264h-767v60h767v-60z" />
    <glyph glyph-name="AE" unicode="&#xc6;" horiz-adv-x="1000" 
d="M970 0h-496v204h-266l-129 -204h-79l452 706h499v-61h-411v-254h370v-62h-370v-269h430v-60zM474 267v365l-226 -365h226z" />
    <glyph glyph-name="ordfeminine" unicode="&#xaa;" horiz-adv-x="313" 
d="M309 406h-10c-30 0 -71 3 -76 41l-2 -3c-7 -11 -9 -12 -15 -17c-27 -21 -57 -27 -83 -27c-76 0 -98 51 -97 85c0 23 9 39 17 48c24 30 77 48 147 61l31 6v11c0 27 -7 62 -65 62c-71 0 -72 -40 -72 -72l-50 9c3 23 7 36 13 46c30 62 100 58 108 58c37 -1 91 -9 107 -61
c4 -14 3 -33 3 -46v-104c0 -41 0 -58 32 -58h12v-39zM221 543v15l-12 -3c-49 -12 -109 -29 -120 -38c-8 -7 -17 -14 -17 -31c0 -20 13 -44 53 -44c5 0 65 3 88 52c9 18 8 48 8 49z" />
    <glyph glyph-name="Oslash" unicode="&#xd8;" horiz-adv-x="708" 
d="M666 683l-67 -82c27 -46 62 -116 62 -240c0 -33 0 -214 -117 -314c-74 -64 -156 -65 -191 -65c-110 0 -167 46 -199 78l-59 -70l-37 31l64 78c-4 6 -8 12 -11 18c-26 43 -61 119 -61 237c0 39 -1 230 142 324c51 33 106 46 167 46c36 0 135 -3 208 -84l60 74zM521 586
c-7 12 -17 26 -41 43c-50 35 -93 35 -118 35c-66 0 -116 -15 -160 -63c-40 -42 -81 -117 -81 -247c0 -33 1 -117 46 -201zM589 346c0 19 -1 85 -19 146c-4 12 -8 26 -20 50l-354 -430c4 -5 8 -9 12 -14c39 -40 92 -57 148 -57c87 0 131 37 156 63c61 66 77 156 77 242z" />
    <glyph glyph-name="OE" unicode="&#x152;" horiz-adv-x="1062" 
d="M1026 0h-491c-26 -7 -72 -18 -138 -18c-24 0 -85 1 -148 28c-141 60 -199 198 -199 342c0 25 1 76 21 139c68 212 255 231 328 230c58 0 106 -11 126 -15h476v-58h-408v-256h370v-62h-370v-270h433v-60zM525 60v588c-17 2 -64 11 -116 11c-118 0 -185 -47 -218 -85
c-32 -37 -71 -111 -71 -228c0 -42 3 -191 133 -265c66 -38 135 -39 161 -39c56 0 87 10 111 18z" />
    <glyph glyph-name="ordmasculine" unicode="&#xba;" horiz-adv-x="333" 
d="M304 558c0 -23 -3 -46 -11 -67c-24 -67 -78 -93 -131 -92c-94 2 -132 79 -133 152c-1 78 39 164 140 163c96 -1 135 -84 135 -156zM255 554c0 16 -1 33 -5 49c-14 62 -61 70 -82 70c-51 0 -90 -36 -90 -120c0 -82 41 -111 86 -112c46 -1 91 30 91 113z" />
    <glyph glyph-name="ae" unicode="&#xe6;" horiz-adv-x="833" 
d="M792 137c-24 -63 -66 -100 -86 -114c-48 -33 -110 -35 -126 -35c-91 0 -144 44 -166 72c-8 10 -15 20 -25 44c-12 -24 -23 -38 -31 -47c-24 -27 -77 -67 -167 -67c-38 0 -81 8 -111 32c-7 6 -17 16 -27 34c-10 19 -15 40 -15 62c0 23 6 67 53 100c37 26 103 43 203 68
l71 18c0 18 1 35 0 52c-2 46 -24 78 -109 78c-4 0 -66 1 -101 -23c-38 -27 -36 -78 -36 -89l-66 9c3 20 7 41 16 60c21 47 71 98 185 98c64 0 131 -17 161 -79c35 57 99 79 162 79c29 0 101 -2 156 -66c59 -68 58 -161 59 -186h-368c-1 -16 -7 -93 38 -145
c4 -5 15 -17 32 -27c14 -9 46 -25 90 -25c10 0 25 1 47 7c35 10 72 32 107 101zM722 286c-2 22 -7 106 -82 138c-19 8 -43 12 -63 12c-50 0 -142 -21 -153 -150h298zM365 212v39c-49 -12 -171 -41 -217 -62c-11 -5 -53 -23 -52 -69c0 -34 21 -77 96 -76c10 0 25 0 47 5
c68 17 102 57 114 82c11 24 12 55 12 81z" />
    <glyph glyph-name="oslash" unicode="&#xf8;" 
d="M477 240c0 -19 -1 -63 -19 -111c-16 -42 -66 -141 -198 -141c-10 0 -46 1 -78 13c-7 3 -19 9 -25 13l-21 -36l-37 22l21 38c-10 11 -17 19 -25 30c-19 28 -51 83 -51 169c1 128 75 252 217 252c20 0 57 -1 100 -26l23 41l39 -23l-26 -45c12 -10 22 -21 31 -33
c20 -27 49 -80 49 -163zM416 238c0 82 -24 124 -45 153l-189 -331c14 -8 36 -20 75 -20c45 0 83 14 113 48c24 27 46 70 46 150zM336 418l-12 6c-26 13 -51 14 -61 14c-16 0 -48 -3 -82 -26c-75 -53 -77 -155 -77 -177c1 -76 28 -121 45 -146z" />
    <glyph glyph-name="oe" unicode="&#x153;" horiz-adv-x="896" 
d="M854 128c-11 -24 -23 -45 -40 -65c-28 -32 -77 -75 -176 -75c-122 0 -168 72 -190 114c-2 -4 -7 -18 -15 -30c-51 -80 -146 -84 -172 -84c-59 0 -112 21 -152 64c-26 28 -65 88 -65 183c0 15 1 50 12 90c14 50 60 164 209 164c23 0 86 -1 137 -47c21 -20 36 -40 46 -66
c12 22 22 35 29 43c21 25 71 70 158 70c26 0 88 -2 141 -50c37 -33 78 -96 78 -201h-371c-2 -23 -7 -91 40 -147c8 -10 27 -30 58 -42c11 -4 29 -9 57 -9c21 0 70 2 114 42c20 18 34 38 45 61zM786 288c-2 26 -6 41 -10 51c-11 30 -45 97 -138 97c-91 0 -142 -64 -155 -148
h303zM420 235c0 21 2 95 -43 150c-7 9 -27 32 -59 44c-11 4 -25 8 -51 8c-22 0 -72 -3 -112 -48c-23 -26 -47 -69 -47 -148c0 -44 9 -77 14 -93c31 -94 104 -108 141 -108c18 0 75 4 113 49c45 53 44 128 44 146z" />
    <glyph glyph-name="germandbls" unicode="&#xdf;" horiz-adv-x="500" 
d="M460 184c0 -20 -1 -77 -33 -127c-15 -24 -53 -72 -129 -72c-19 0 -63 5 -108 31l1 67c5 -3 60 -44 107 -44c16 0 53 6 76 45c22 37 22 92 22 101c0 15 0 56 -20 97c-21 44 -63 88 -168 88c-11 0 -21 -1 -31 -1v58c5 0 86 -4 130 25c19 12 49 45 49 103c0 24 -6 42 -10 50
c-9 22 -34 62 -97 62c-37 0 -58 -13 -71 -22c-46 -33 -45 -96 -46 -146c-1 -24 -1 -48 -1 -72v-427h-57v452c0 50 -3 118 15 167c26 72 90 105 163 105c10 0 40 -1 67 -11c66 -25 100 -92 100 -160c0 -18 -2 -76 -48 -116c-28 -24 -57 -30 -70 -32c37 -6 60 -17 74 -26
c62 -41 85 -126 85 -195z" />
    <glyph glyph-name="Ydieresis" unicode="&#x178;" horiz-adv-x="625" 
d="M456 784h-67v97h67v-97zM237 784h-67v97h67v-97zM615 706l-276 -414v-292h-66v292l-263 414h79l218 -351l227 351h81z" />
    <glyph glyph-name="trademark" unicode="&#x2122;" horiz-adv-x="683" 
d="M611 374h-46l2 285l-89 -285h-42l-89 284l4 -284h-46v332h67l86 -272l85 272h68v-332zM268 665h-98v-291h-48v291h-100v41h246v-41z" />
    <glyph glyph-name="scaron" unicode="&#x161;" horiz-adv-x="458" 
d="M371 696l-127 -138h-27l-134 138h51l98 -65l90 65h49zM404 138c2 -66 -47 -150 -178 -150c-76 0 -150 31 -192 128l58 21c1 -4 4 -16 11 -28c19 -35 58 -67 123 -67c84 0 121 44 121 93c0 60 -56 75 -98 85c-33 7 -89 16 -122 33c-30 15 -62 43 -63 100
c-2 71 50 138 173 136c101 -1 152 -47 167 -108l-56 -15c-1 4 -4 19 -14 32c-17 22 -51 38 -100 39c-79 1 -114 -34 -112 -82c2 -56 66 -68 100 -75l49 -10c22 -5 131 -27 133 -132z" />
    <glyph glyph-name="Scaron" unicode="&#x160;" horiz-adv-x="604" 
d="M428 895l-105 -123h-41l-105 123h49l78 -56l77 56h47zM575 187c-2 -43 -18 -77 -29 -94c-39 -62 -115 -111 -233 -111c-142 0 -214 63 -248 143c-11 25 -13 43 -16 53l67 35c0 -125 96 -173 200 -172c131 2 189 76 191 146c2 89 -66 117 -104 131c-69 25 -146 32 -215 66
c-46 23 -106 68 -103 163c4 135 126 175 226 177c147 3 223 -73 250 -155l-62 -34c-10 31 -21 52 -30 64c-43 57 -108 70 -153 70c0 0 -164 4 -166 -124c-1 -60 35 -96 97 -118c76 -27 136 -29 210 -63c113 -53 119 -143 118 -177z" />
    <glyph glyph-name="ydieresis" unicode="&#xff;" horiz-adv-x="437" 
d="M336 582h-61v92h61v-92zM164 582h-61v92h61v-92zM427 477l-215 -546c-45 -114 -62 -173 -138 -173c-33 0 -53 12 -63 19v60c27 -19 46 -23 62 -23c34 0 43 22 64 72c6 15 13 30 19 45l25 69l-165 477h57l139 -406l155 406h60z" />
    <glyph glyph-name="thorn" unicode="&#xfe;" 
d="M477 241c1 -109 -56 -257 -204 -252c-78 2 -125 48 -140 91v-333h-58v959h58v-307c40 89 128 88 144 88c145 0 182 -131 192 -176c2 -11 8 -39 8 -70zM416 250c-3 134 -76 184 -150 183c-117 -2 -133 -117 -133 -188v-21c0 -45 4 -113 59 -155c15 -11 39 -24 75 -24
c122 0 151 130 149 205z" />
    <glyph glyph-name="yacute" unicode="&#xfd;" horiz-adv-x="437" 
d="M400 698l-170 -140h-53l111 140h112zM427 477l-215 -546c-45 -114 -62 -173 -138 -173c-33 0 -53 12 -63 19v60c27 -19 46 -23 62 -23c34 0 43 22 64 72c6 15 13 30 19 45l25 69l-165 477h57l139 -406l155 406h60z" />
    <glyph glyph-name="udieresis" unicode="&#xfc;" 
d="M377 582h-61v92h61v-92zM205 582h-61v92h61v-92zM446 0h-59v86c-8 -18 -14 -28 -19 -35c-44 -61 -108 -62 -133 -62c-8 0 -32 1 -56 9c-43 14 -77 49 -91 92c-10 33 -13 78 -13 153v234h60v-247c0 -58 1 -89 8 -116c8 -29 29 -70 99 -70c24 0 75 1 113 53
c36 49 32 113 32 171v209h59v-477z" />
    <glyph glyph-name="ucircumflex" unicode="&#xfb;" 
d="M409 558h-51l-99 65l-89 -65h-49l127 138h27zM446 0h-59v86c-8 -18 -14 -28 -19 -35c-44 -61 -108 -62 -133 -62c-8 0 -32 1 -56 9c-43 14 -77 49 -91 92c-10 33 -13 78 -13 153v234h60v-247c0 -58 1 -89 8 -116c8 -29 29 -70 99 -70c24 0 75 1 113 53
c36 49 32 113 32 171v209h59v-477z" />
    <glyph glyph-name="uacute" unicode="&#xfa;" 
d="M442 698l-171 -140h-53l112 140h112zM446 0h-59v86c-8 -18 -14 -28 -19 -35c-44 -61 -108 -62 -133 -62c-8 0 -32 1 -56 9c-43 14 -77 49 -91 92c-10 33 -13 78 -13 153v234h60v-247c0 -58 1 -89 8 -116c8 -29 29 -70 99 -70c24 0 75 1 113 53c36 49 32 113 32 171v209
h59v-477z" />
    <glyph glyph-name="ugrave" unicode="&#xf9;" 
d="M302 558h-53l-170 140h111zM446 0h-59v86c-8 -18 -14 -28 -19 -35c-44 -61 -108 -62 -133 -62c-8 0 -32 1 -56 9c-43 14 -77 49 -91 92c-10 33 -13 78 -13 153v234h60v-247c0 -58 1 -89 8 -116c8 -29 29 -70 99 -70c24 0 75 1 113 53c36 49 32 113 32 171v209h59v-477z
" />
    <glyph glyph-name="divide" unicode="&#xf7;" horiz-adv-x="724" 
d="M397 396h-68v94h68v-94zM645 262h-566v60h566v-60zM397 95h-68v94h68v-94z" />
    <glyph glyph-name="odieresis" unicode="&#xf6;" 
d="M377 582h-61v92h61v-92zM205 582h-61v92h61v-92zM477 241c0 -16 0 -54 -13 -96c-30 -96 -105 -157 -206 -157c-33 0 -109 6 -165 80c-21 29 -49 80 -49 165c0 21 1 68 22 121c47 121 149 135 196 135c55 0 100 -16 140 -53c53 -51 74 -124 75 -195zM414 235
c2 155 -77 204 -153 204c-15 0 -52 -2 -86 -27c-37 -28 -68 -80 -68 -179c0 -18 -2 -114 63 -165c15 -12 43 -28 89 -28c70 0 154 44 155 195z" />
    <glyph glyph-name="otilde" unicode="&#xf5;" 
d="M416 665c-22 -47 -36 -68 -59 -80c-7 -4 -20 -10 -37 -10c-29 1 -62 20 -86 32c-21 10 -32 16 -44 16c-5 0 -12 -2 -17 -5c-13 -7 -17 -15 -28 -37l-41 9c10 26 17 39 25 50c16 22 41 39 69 38c21 0 41 -8 78 -28c14 -8 34 -18 50 -18c10 0 18 4 20 5c16 9 22 24 29 38z
M477 241c0 -16 0 -54 -13 -96c-30 -96 -105 -157 -206 -157c-33 0 -109 6 -165 80c-21 29 -49 80 -49 165c0 21 1 68 22 121c47 121 149 135 196 135c55 0 100 -16 140 -53c53 -51 74 -124 75 -195zM414 235c2 155 -77 204 -153 204c-15 0 -52 -2 -86 -27
c-37 -28 -68 -80 -68 -179c0 -18 -2 -114 63 -165c15 -12 43 -28 89 -28c70 0 154 44 155 195z" />
    <glyph glyph-name="ocircumflex" unicode="&#xf4;" 
d="M409 558h-51l-99 65l-89 -65h-49l127 138h27zM477 241c0 -16 0 -54 -13 -96c-30 -96 -105 -157 -206 -157c-33 0 -109 6 -165 80c-21 29 -49 80 -49 165c0 21 1 68 22 121c47 121 149 135 196 135c55 0 100 -16 140 -53c53 -51 74 -124 75 -195zM414 235
c2 155 -77 204 -153 204c-15 0 -52 -2 -86 -27c-37 -28 -68 -80 -68 -179c0 -18 -2 -114 63 -165c15 -12 43 -28 89 -28c70 0 154 44 155 195z" />
    <glyph glyph-name="oacute" unicode="&#xf3;" 
d="M442 698l-171 -140h-53l112 140h112zM477 241c0 -16 0 -54 -13 -96c-30 -96 -105 -157 -206 -157c-33 0 -109 6 -165 80c-21 29 -49 80 -49 165c0 21 1 68 22 121c47 121 149 135 196 135c55 0 100 -16 140 -53c53 -51 74 -124 75 -195zM414 235c2 155 -77 204 -153 204
c-15 0 -52 -2 -86 -27c-37 -28 -68 -80 -68 -179c0 -18 -2 -114 63 -165c15 -12 43 -28 89 -28c70 0 154 44 155 195z" />
    <glyph glyph-name="ograve" unicode="&#xf2;" 
d="M302 558h-53l-170 140h111zM477 241c0 -16 0 -54 -13 -96c-30 -96 -105 -157 -206 -157c-33 0 -109 6 -165 80c-21 29 -49 80 -49 165c0 21 1 68 22 121c47 121 149 135 196 135c55 0 100 -16 140 -53c53 -51 74 -124 75 -195zM414 235c2 155 -77 204 -153 204
c-15 0 -52 -2 -86 -27c-37 -28 -68 -80 -68 -179c0 -18 -2 -114 63 -165c15 -12 43 -28 89 -28c70 0 154 44 155 195z" />
    <glyph glyph-name="ntilde" unicode="&#xf1;" 
d="M416 665c-22 -47 -36 -68 -59 -80c-7 -4 -20 -10 -37 -10c-29 1 -62 20 -86 32c-21 10 -32 16 -44 16c-5 0 -12 -2 -17 -5c-13 -7 -17 -15 -28 -37l-41 9c10 26 17 39 25 50c16 22 41 39 69 38c21 0 41 -8 78 -28c14 -8 34 -18 50 -18c10 0 18 4 20 5c16 9 22 24 29 38z
M446 0h-59v248c0 64 0 102 -11 130c-10 25 -27 36 -36 41c-27 16 -54 15 -65 15s-37 -1 -63 -13c-35 -17 -63 -55 -72 -91c-5 -23 -6 -64 -6 -121v-209h-59v477h59v-85c4 12 11 31 34 53c19 18 53 42 116 42c89 0 130 -49 145 -82c18 -38 17 -76 17 -157v-248z" />
    <glyph glyph-name="eth" unicode="&#xf0;" 
d="M477 269c0 -59 -8 -101 -15 -125c-20 -63 -77 -155 -209 -153c-146 3 -208 123 -209 242c0 66 17 167 99 224c24 17 64 36 121 35c74 -2 108 -38 136 -73c-7 29 -20 83 -67 156l-159 -51l-16 37l152 48c-33 44 -55 64 -77 86l43 26c32 -34 54 -59 82 -96l91 29l15 -38
l-81 -26l4 -7c35 -61 89 -168 90 -314zM414 238v4c0 140 -67 200 -151 200c-45 0 -76 -17 -95 -33c-40 -34 -61 -90 -61 -174c0 -140 72 -191 148 -192c79 -1 159 51 159 195z" />
    <glyph glyph-name="idieresis" unicode="&#xef;" horiz-adv-x="208" 
d="M221 582h-61v92h61v-92zM49 582h-60v92h60v-92zM133 0h-58v477h58v-477z" />
    <glyph glyph-name="icircumflex" unicode="&#xee;" horiz-adv-x="208" 
d="M253 558h-52l-98 65l-89 -65h-50l128 138h26zM133 0h-58v477h58v-477z" />
    <glyph glyph-name="iacute" unicode="&#xed;" horiz-adv-x="208" 
d="M286 698l-171 -140h-53l112 140h112zM133 0h-58v477h58v-477z" />
    <glyph glyph-name="igrave" unicode="&#xec;" horiz-adv-x="208" 
d="M146 558h-53l-170 140h111zM133 0h-58v477h58v-477z" />
    <glyph glyph-name="edieresis" unicode="&#xeb;" 
d="M378 582h-61v92h61v-92zM206 582h-61v92h61v-92zM479 126c-5 -10 -17 -37 -37 -62c-26 -31 -73 -76 -170 -76c-17 0 -65 1 -110 25c-114 59 -118 199 -118 230c0 16 0 55 15 97c31 90 109 149 205 149c29 0 98 -6 153 -68c38 -43 62 -110 62 -168v-15h-370
c-1 -39 4 -63 9 -80c10 -38 44 -117 153 -116c42 0 108 10 153 100zM411 287c-14 123 -96 149 -148 149c-83 0 -122 -57 -135 -83c-9 -20 -15 -45 -18 -66h301z" />
    <glyph glyph-name="ecircumflex" unicode="&#xea;" 
d="M409 558h-51l-99 65l-89 -65h-49l127 138h27zM479 126c-5 -10 -17 -37 -37 -62c-26 -31 -73 -76 -170 -76c-17 0 -65 1 -110 25c-114 59 -118 199 -118 230c0 16 0 55 15 97c31 90 109 149 205 149c29 0 98 -6 153 -68c38 -43 62 -110 62 -168v-15h-370
c-1 -39 4 -63 9 -80c10 -38 44 -117 153 -116c42 0 108 10 153 100zM411 287c-14 123 -96 149 -148 149c-83 0 -122 -57 -135 -83c-9 -20 -15 -45 -18 -66h301z" />
    <glyph glyph-name="eacute" unicode="&#xe9;" 
d="M442 698l-171 -140h-53l112 140h112zM479 126c-5 -10 -17 -37 -37 -62c-26 -31 -73 -76 -170 -76c-17 0 -65 1 -110 25c-114 59 -118 199 -118 230c0 16 0 55 15 97c31 90 109 149 205 149c29 0 98 -6 153 -68c38 -43 62 -110 62 -168v-15h-370c-1 -39 4 -63 9 -80
c10 -38 44 -117 153 -116c42 0 108 10 153 100zM411 287c-14 123 -96 149 -148 149c-83 0 -122 -57 -135 -83c-9 -20 -15 -45 -18 -66h301z" />
    <glyph glyph-name="egrave" unicode="&#xe8;" 
d="M302 558h-53l-170 140h111zM479 126c-5 -10 -17 -37 -37 -62c-26 -31 -73 -76 -170 -76c-17 0 -65 1 -110 25c-114 59 -118 199 -118 230c0 16 0 55 15 97c31 90 109 149 205 149c29 0 98 -6 153 -68c38 -43 62 -110 62 -168v-15h-370c-1 -39 4 -63 9 -80
c10 -38 44 -117 153 -116c42 0 108 10 153 100zM411 287c-14 123 -96 149 -148 149c-83 0 -122 -57 -135 -83c-9 -20 -15 -45 -18 -66h301z" />
    <glyph glyph-name="ccedilla" unicode="&#xe7;" horiz-adv-x="479" 
d="M454 107c-6 -12 -9 -20 -17 -31c-37 -57 -83 -76 -130 -84c-13 -2 -22 -3 -34 -4l-18 -35c8 1 13 3 28 3h1c37 0 69 -22 69 -64c1 -60 -58 -83 -103 -82c-15 0 -31 2 -36 3v27h7c9 -2 18 -2 27 -2c35 1 54 18 54 40c0 18 -17 37 -50 37c-17 0 -32 -7 -38 -10v25l34 59
c-7 1 -45 3 -76 16c-71 31 -129 109 -128 235c1 64 19 158 102 213c26 17 70 37 132 36c83 -2 131 -40 160 -86c12 -18 12 -24 16 -34l-55 -14c-22 59 -83 80 -126 81c-72 1 -164 -47 -165 -195c-1 -92 35 -204 161 -201c73 1 105 44 125 80z" />
    <glyph glyph-name="aring" unicode="&#xe5;" horiz-adv-x="500" 
d="M320 631c0 -44 -36 -79 -80 -79s-79 36 -79 80c0 45 37 79 80 79c44 0 79 -36 79 -80zM492 0c-56 0 -87 5 -107 25c-19 19 -20 39 -21 62c-6 -15 -14 -29 -25 -41c-19 -22 -69 -56 -144 -56c-61 0 -94 21 -114 41c-12 12 -36 43 -36 89c0 14 2 46 26 75
c36 44 95 58 147 73c30 8 60 17 90 23l56 12v25c0 18 1 28 -5 46c-10 31 -37 64 -109 63c-61 0 -92 -17 -108 -41c-15 -23 -17 -48 -18 -74l-65 11c2 10 8 51 28 83c22 33 69 73 159 73c48 0 113 -12 146 -51c32 -38 29 -89 29 -135v-153c0 -46 -1 -78 16 -92
c15 -12 39 -11 55 -11v-47zM281 633c0 24 -19 42 -42 42c-24 0 -42 -19 -42 -43c0 -4 0 -8 4 -17c3 -7 14 -24 39 -24c22 0 41 19 41 42zM364 216v36l-30 -8c-93 -25 -173 -44 -202 -65c-18 -13 -30 -35 -30 -58c0 -16 7 -30 9 -34c22 -44 76 -45 87 -45c58 0 129 35 153 90
c9 20 13 40 13 84z" />
    <glyph glyph-name="adieresis" unicode="&#xe4;" horiz-adv-x="500" 
d="M355 582h-61v92h61v-92zM183 582h-61v92h61v-92zM492 0c-56 0 -87 5 -107 25c-19 19 -20 39 -21 62c-6 -15 -14 -29 -25 -41c-19 -22 -69 -56 -144 -56c-61 0 -94 21 -114 41c-12 12 -36 43 -36 89c0 14 2 46 26 75c36 44 95 58 147 73c30 8 60 17 90 23l56 12v25
c0 18 1 28 -5 46c-10 31 -37 64 -109 63c-61 0 -92 -17 -108 -41c-15 -23 -17 -48 -18 -74l-65 11c2 10 8 51 28 83c22 33 69 73 159 73c48 0 113 -12 146 -51c32 -38 29 -89 29 -135v-153c0 -46 -1 -78 16 -92c15 -12 39 -11 55 -11v-47zM364 216v36l-30 -8
c-93 -25 -173 -44 -202 -65c-18 -13 -30 -35 -30 -58c0 -16 7 -30 9 -34c22 -44 76 -45 87 -45c58 0 129 35 153 90c9 20 13 40 13 84z" />
    <glyph glyph-name="atilde" unicode="&#xe3;" horiz-adv-x="500" 
d="M405 665c-22 -47 -35 -67 -59 -80c-6 -3 -19 -10 -37 -10c-28 1 -62 20 -86 32c-20 10 -32 16 -43 16c-6 0 -13 -2 -18 -5c-12 -7 -16 -15 -27 -37l-42 9c11 26 18 39 26 50c16 22 41 39 68 38c21 0 41 -8 79 -28c14 -8 33 -18 50 -18c9 0 17 4 20 5c16 9 22 24 29 38z
M492 0c-56 0 -87 5 -107 25c-19 19 -20 39 -21 62c-6 -15 -14 -29 -25 -41c-19 -22 -69 -56 -144 -56c-61 0 -94 21 -114 41c-12 12 -36 43 -36 89c0 14 2 46 26 75c36 44 95 58 147 73c30 8 60 17 90 23l56 12v25c0 18 1 28 -5 46c-10 31 -37 64 -109 63
c-61 0 -92 -17 -108 -41c-15 -23 -17 -48 -18 -74l-65 11c2 10 8 51 28 83c22 33 69 73 159 73c48 0 113 -12 146 -51c32 -38 29 -89 29 -135v-153c0 -46 -1 -78 16 -92c15 -12 39 -11 55 -11v-47zM364 216v36l-30 -8c-93 -25 -173 -44 -202 -65c-18 -13 -30 -35 -30 -58
c0 -16 7 -30 9 -34c22 -44 76 -45 87 -45c58 0 129 35 153 90c9 20 13 40 13 84z" />
    <glyph glyph-name="acircumflex" unicode="&#xe2;" horiz-adv-x="500" 
d="M398 558h-51l-98 65l-89 -65h-50l128 138h26zM492 0c-56 0 -87 5 -107 25c-19 19 -20 39 -21 62c-6 -15 -14 -29 -25 -41c-19 -22 -69 -56 -144 -56c-61 0 -94 21 -114 41c-12 12 -36 43 -36 89c0 14 2 46 26 75c36 44 95 58 147 73c30 8 60 17 90 23l56 12v25
c0 18 1 28 -5 46c-10 31 -37 64 -109 63c-61 0 -92 -17 -108 -41c-15 -23 -17 -48 -18 -74l-65 11c2 10 8 51 28 83c22 33 69 73 159 73c48 0 113 -12 146 -51c32 -38 29 -89 29 -135v-153c0 -46 -1 -78 16 -92c15 -12 39 -11 55 -11v-47zM364 216v36l-30 -8
c-93 -25 -173 -44 -202 -65c-18 -13 -30 -35 -30 -58c0 -16 7 -30 9 -34c22 -44 76 -45 87 -45c58 0 129 35 153 90c9 20 13 40 13 84z" />
    <glyph glyph-name="aacute" unicode="&#xe1;" horiz-adv-x="500" 
d="M431 698l-170 -140h-53l111 140h112zM492 0c-56 0 -87 5 -107 25c-19 19 -20 39 -21 62c-6 -15 -14 -29 -25 -41c-19 -22 -69 -56 -144 -56c-61 0 -94 21 -114 41c-12 12 -36 43 -36 89c0 14 2 46 26 75c36 44 95 58 147 73c30 8 60 17 90 23l56 12v25c0 18 1 28 -5 46
c-10 31 -37 64 -109 63c-61 0 -92 -17 -108 -41c-15 -23 -17 -48 -18 -74l-65 11c2 10 8 51 28 83c22 33 69 73 159 73c48 0 113 -12 146 -51c32 -38 29 -89 29 -135v-153c0 -46 -1 -78 16 -92c15 -12 39 -11 55 -11v-47zM364 216v36l-30 -8c-93 -25 -173 -44 -202 -65
c-18 -13 -30 -35 -30 -58c0 -16 7 -30 9 -34c22 -44 76 -45 87 -45c58 0 129 35 153 90c9 20 13 40 13 84z" />
    <glyph glyph-name="agrave" unicode="&#xe0;" horiz-adv-x="500" 
d="M328 558h-53l-170 140h111zM492 0c-56 0 -87 5 -107 25c-19 19 -20 39 -21 62c-6 -15 -14 -29 -25 -41c-19 -22 -69 -56 -144 -56c-61 0 -94 21 -114 41c-12 12 -36 43 -36 89c0 14 2 46 26 75c36 44 95 58 147 73c30 8 60 17 90 23l56 12v25c0 18 1 28 -5 46
c-10 31 -37 64 -109 63c-61 0 -92 -17 -108 -41c-15 -23 -17 -48 -18 -74l-65 11c2 10 8 51 28 83c22 33 69 73 159 73c48 0 113 -12 146 -51c32 -38 29 -89 29 -135v-153c0 -46 -1 -78 16 -92c15 -12 39 -11 55 -11v-47zM364 216v36l-30 -8c-93 -25 -173 -44 -202 -65
c-18 -13 -30 -35 -30 -58c0 -16 7 -30 9 -34c22 -44 76 -45 87 -45c58 0 129 35 153 90c9 20 13 40 13 84z" />
    <glyph glyph-name="Thorn" unicode="&#xde;" horiz-adv-x="625" 
d="M613 407c1 -61 -19 -104 -39 -129c-64 -83 -169 -69 -273 -69h-156v-209h-64v706h64v-109h177c126 0 198 3 251 -63c40 -51 40 -116 40 -127zM548 406c0 9 2 56 -29 93c-42 49 -103 42 -203 42h-171v-273h151c115 0 181 -11 228 51c14 19 25 45 24 87z" />
    <glyph glyph-name="Yacute" unicode="&#xdd;" horiz-adv-x="625" 
d="M473 895l-148 -125h-57l99 125h106zM615 706l-276 -414v-292h-66v292l-263 414h79l218 -351l227 351h81z" />
    <glyph glyph-name="Udieresis" unicode="&#xdc;" horiz-adv-x="688" 
d="M488 784h-67v97h67v-97zM269 784h-67v97h67v-97zM608 385c0 -49 0 -97 -2 -146c-2 -65 -11 -126 -55 -178c-32 -37 -92 -79 -205 -79c-26 0 -112 1 -181 55c-10 8 -33 28 -51 58c-37 65 -34 137 -34 284v327h66v-458c0 -38 3 -80 21 -116c18 -37 48 -54 61 -61
c37 -20 76 -27 117 -27c18 0 106 0 156 59c40 48 40 111 40 168v435h67v-321z" />
    <glyph glyph-name="Ucircumflex" unicode="&#xdb;" horiz-adv-x="688" 
d="M472 772h-49l-78 56l-77 -56h-47l105 123h42zM608 385c0 -49 0 -97 -2 -146c-2 -65 -11 -126 -55 -178c-32 -37 -92 -79 -205 -79c-26 0 -112 1 -181 55c-10 8 -33 28 -51 58c-37 65 -34 137 -34 284v327h66v-458c0 -38 3 -80 21 -116c18 -37 48 -54 61 -61
c37 -20 76 -27 117 -27c18 0 106 0 156 59c40 48 40 111 40 168v435h67v-321z" />
    <glyph glyph-name="Uacute" unicode="&#xda;" horiz-adv-x="688" 
d="M504 895l-148 -125h-57l99 125h106zM608 385c0 -49 0 -97 -2 -146c-2 -65 -11 -126 -55 -178c-32 -37 -92 -79 -205 -79c-26 0 -112 1 -181 55c-10 8 -33 28 -51 58c-37 65 -34 137 -34 284v327h66v-458c0 -38 3 -80 21 -116c18 -37 48 -54 61 -61c37 -20 76 -27 117 -27
c18 0 106 0 156 59c40 48 40 111 40 168v435h67v-321z" />
    <glyph glyph-name="Ugrave" unicode="&#xd9;" horiz-adv-x="688" 
d="M385 770h-57l-148 125h106zM608 385c0 -49 0 -97 -2 -146c-2 -65 -11 -126 -55 -178c-32 -37 -92 -79 -205 -79c-26 0 -112 1 -181 55c-10 8 -33 28 -51 58c-37 65 -34 137 -34 284v327h66v-458c0 -38 3 -80 21 -116c18 -37 48 -54 61 -61c37 -20 76 -27 117 -27
c18 0 106 0 156 59c40 48 40 111 40 168v435h67v-321z" />
    <glyph glyph-name="multiply" unicode="&#xd7;" horiz-adv-x="724" 
d="M572 124l-43 -43l-168 169l-169 -168l-42 42l168 168l-168 168l43 43l168 -168l168 168l42 -43l-168 -168z" />
    <glyph glyph-name="Odieresis" unicode="&#xd6;" horiz-adv-x="708" 
d="M499 784h-67v97h67v-97zM280 784h-67v97h67v-97zM658 357c0 -89 -24 -197 -80 -271c-14 -18 -51 -62 -111 -85c-22 -8 -56 -19 -111 -19c-82 0 -148 23 -205 82c-45 47 -101 137 -101 291c0 38 1 180 94 281c14 15 46 48 97 68c22 9 60 20 115 20c48 0 160 -6 236 -118
c29 -42 67 -125 66 -249zM587 357c1 27 -1 151 -71 236c-8 9 -30 34 -62 51c-17 9 -48 22 -98 22c-175 0 -235 -169 -235 -313c0 -25 1 -172 87 -255c41 -39 90 -56 145 -56c62 0 111 18 152 64c79 86 82 226 82 251z" />
    <glyph glyph-name="Otilde" unicode="&#xd5;" horiz-adv-x="708" 
d="M525 867c-4 -10 -9 -22 -21 -42c-17 -28 -40 -51 -75 -51c-32 0 -71 23 -97 36c-23 12 -39 19 -50 19c-5 0 -13 -1 -23 -8c-18 -13 -23 -28 -30 -47l-40 13c2 6 17 48 39 73c12 14 23 20 31 23c4 2 16 7 30 7c24 0 46 -10 86 -34c14 -8 37 -22 53 -22c30 1 44 30 55 52z
M658 357c0 -89 -24 -197 -80 -271c-14 -18 -51 -62 -111 -85c-22 -8 -56 -19 -111 -19c-82 0 -148 23 -205 82c-45 47 -101 137 -101 291c0 38 1 180 94 281c14 15 46 48 97 68c22 9 60 20 115 20c48 0 160 -6 236 -118c29 -42 67 -125 66 -249zM587 357
c1 27 -1 151 -71 236c-8 9 -30 34 -62 51c-17 9 -48 22 -98 22c-175 0 -235 -169 -235 -313c0 -25 1 -172 87 -255c41 -39 90 -56 145 -56c62 0 111 18 152 64c79 86 82 226 82 251z" />
    <glyph glyph-name="Ocircumflex" unicode="&#xd4;" horiz-adv-x="708" 
d="M482 772h-49l-78 56l-76 -56h-48l105 123h42zM658 357c0 -89 -24 -197 -80 -271c-14 -18 -51 -62 -111 -85c-22 -8 -56 -19 -111 -19c-82 0 -148 23 -205 82c-45 47 -101 137 -101 291c0 38 1 180 94 281c14 15 46 48 97 68c22 9 60 20 115 20c48 0 160 -6 236 -118
c29 -42 67 -125 66 -249zM587 357c1 27 -1 151 -71 236c-8 9 -30 34 -62 51c-17 9 -48 22 -98 22c-175 0 -235 -169 -235 -313c0 -25 1 -172 87 -255c41 -39 90 -56 145 -56c62 0 111 18 152 64c79 86 82 226 82 251z" />
    <glyph glyph-name="Oacute" unicode="&#xd3;" horiz-adv-x="708" 
d="M514 895l-147 -125h-57l99 125h105zM658 357c0 -89 -24 -197 -80 -271c-14 -18 -51 -62 -111 -85c-22 -8 -56 -19 -111 -19c-82 0 -148 23 -205 82c-45 47 -101 137 -101 291c0 38 1 180 94 281c14 15 46 48 97 68c22 9 60 20 115 20c48 0 160 -6 236 -118
c29 -42 67 -125 66 -249zM587 357c1 27 -1 151 -71 236c-8 9 -30 34 -62 51c-17 9 -48 22 -98 22c-175 0 -235 -169 -235 -313c0 -25 1 -172 87 -255c41 -39 90 -56 145 -56c62 0 111 18 152 64c79 86 82 226 82 251z" />
    <glyph glyph-name="Ograve" unicode="&#xd2;" horiz-adv-x="708" 
d="M396 770h-58l-147 125h106zM658 357c0 -89 -24 -197 -80 -271c-14 -18 -51 -62 -111 -85c-22 -8 -56 -19 -111 -19c-82 0 -148 23 -205 82c-45 47 -101 137 -101 291c0 38 1 180 94 281c14 15 46 48 97 68c22 9 60 20 115 20c48 0 160 -6 236 -118
c29 -42 67 -125 66 -249zM587 357c1 27 -1 151 -71 236c-8 9 -30 34 -62 51c-17 9 -48 22 -98 22c-175 0 -235 -169 -235 -313c0 -25 1 -172 87 -255c41 -39 90 -56 145 -56c62 0 111 18 152 64c79 86 82 226 82 251z" />
    <glyph glyph-name="Ntilde" unicode="&#xd1;" horiz-adv-x="708" 
d="M525 867c-4 -10 -9 -22 -21 -42c-17 -28 -40 -51 -75 -51c-32 0 -71 23 -97 36c-23 12 -39 19 -50 19c-5 0 -13 -1 -23 -8c-18 -13 -23 -28 -30 -47l-40 13c2 6 17 48 39 73c12 14 23 20 31 23c4 2 16 7 30 7c24 0 46 -10 86 -34c14 -8 37 -22 53 -22c30 1 44 30 55 52z
M627 0h-66l-414 610v-610h-66v706h66l419 -604l-5 604h66v-706z" />
    <glyph glyph-name="Eth" unicode="&#xd0;" horiz-adv-x="688" 
d="M638 356c0 -177 -84 -300 -185 -337c-53 -20 -135 -19 -188 -19h-184v352h-81v54h81v300h189c94 0 151 -4 193 -21c96 -40 175 -160 175 -329zM570 346c1 78 -21 234 -137 283c-38 16 -80 16 -160 16h-124v-239h221v-54h-221v-292h135c75 0 130 7 160 22
c68 34 125 133 126 264z" />
    <glyph glyph-name="Idieresis" unicode="&#xcf;" horiz-adv-x="229" 
d="M258 784h-67v97h67v-97zM39 784h-67v97h67v-97zM148 0h-67v706h67v-706z" />
    <glyph glyph-name="Icircumflex" unicode="&#xce;" horiz-adv-x="229" 
d="M243 772h-49l-78 56l-77 -56h-47l104 123h42zM148 0h-67v706h67v-706z" />
    <glyph glyph-name="Iacute" unicode="&#xcd;" horiz-adv-x="229" 
d="M275 895l-148 -125h-57l99 125h106zM148 0h-67v706h67v-706z" />
    <glyph glyph-name="Igrave" unicode="&#xcc;" horiz-adv-x="229" 
d="M156 770h-57l-148 125h106zM148 0h-67v706h67v-706z" />
    <glyph glyph-name="Edieresis" unicode="&#xcb;" horiz-adv-x="604" 
d="M446 784h-67v97h67v-97zM227 784h-67v97h67v-97zM567 0h-486v706h461v-61h-394v-252h357v-62h-357v-269h419v-62z" />
    <glyph glyph-name="Ecircumflex" unicode="&#xca;" horiz-adv-x="604" 
d="M430 772h-49l-78 56l-77 -56h-47l105 123h42zM567 0h-486v706h461v-61h-394v-252h357v-62h-357v-269h419v-62z" />
    <glyph glyph-name="Eacute" unicode="&#xc9;" horiz-adv-x="604" 
d="M462 895l-147 -125h-57l99 125h105zM567 0h-486v706h461v-61h-394v-252h357v-62h-357v-269h419v-62z" />
    <glyph glyph-name="Egrave" unicode="&#xc8;" horiz-adv-x="604" 
d="M344 770h-58l-147 125h106zM567 0h-486v706h461v-61h-394v-252h357v-62h-357v-269h419v-62z" />
    <glyph glyph-name="Ccedilla" unicode="&#xc7;" horiz-adv-x="667" 
d="M625 541l-68 -34v4c-10 39 -28 69 -40 84c-31 41 -78 69 -160 70c-54 0 -90 -12 -113 -25c-74 -43 -122 -136 -124 -271c-2 -144 32 -325 243 -327c83 -1 126 32 157 74c26 34 35 64 37 76l63 -38c-59 -132 -150 -157 -198 -166c-25 -4 -51 -6 -59 -6l-15 -29
c8 1 14 3 28 3h2c36 0 68 -22 68 -64c0 -59 -57 -83 -102 -82c-17 0 -30 2 -36 3v27h7c9 -2 18 -2 27 -2c35 1 53 18 53 40c0 19 -16 37 -49 37c-17 0 -33 -7 -38 -10v25l30 53c-17 2 -69 3 -123 29c-147 72 -168 252 -165 353c1 41 7 363 308 359c132 -2 197 -58 239 -128
c12 -19 17 -35 28 -55z" />
    <glyph glyph-name="Aring" unicode="&#xc5;" horiz-adv-x="646" 
d="M408 827c-1 -45 -37 -79 -80 -79c-45 0 -80 36 -80 80s37 79 80 79c44 0 80 -36 80 -80zM635 0h-73l-81 213h-316l-81 -213h-74l288 706h56zM369 829c-1 23 -19 42 -43 42c-24 -1 -42 -20 -42 -43c1 -24 19 -42 43 -42c23 0 42 20 42 43zM461 267l-136 361l-138 -361h274
z" />
    <glyph glyph-name="Adieresis" unicode="&#xc4;" horiz-adv-x="646" 
d="M470 784h-67v97h67v-97zM251 784h-67v97h67v-97zM635 0h-73l-81 213h-316l-81 -213h-74l288 706h56zM461 267l-136 361l-138 -361h274z" />
    <glyph glyph-name="Atilde" unicode="&#xc3;" horiz-adv-x="646" 
d="M494 867c-4 -10 -9 -22 -21 -42c-17 -28 -40 -51 -76 -51c-31 0 -71 23 -96 36c-23 12 -39 19 -50 19c-6 0 -13 -1 -23 -8c-18 -13 -23 -28 -30 -47l-40 13c2 6 17 48 38 73c13 14 24 20 31 23c5 2 17 7 31 7c24 0 46 -10 86 -34c14 -8 36 -22 53 -22c30 1 44 30 54 52z
M635 0h-73l-81 213h-316l-81 -213h-74l288 706h56zM461 267l-136 361l-138 -361h274z" />
    <glyph glyph-name="Acircumflex" unicode="&#xc2;" horiz-adv-x="646" 
d="M451 772h-49l-78 56l-77 -56h-47l105 123h42zM635 0h-73l-81 213h-316l-81 -213h-74l288 706h56zM461 267l-136 361l-138 -361h274z" />
    <glyph glyph-name="Aacute" unicode="&#xc1;" horiz-adv-x="646" 
d="M483 895l-147 -125h-58l99 125h106zM635 0h-73l-81 213h-316l-81 -213h-74l288 706h56zM461 267l-136 361l-138 -361h274z" />
    <glyph glyph-name="Agrave" unicode="&#xc0;" horiz-adv-x="646" 
d="M364 770h-57l-147 125h106zM635 0h-73l-81 213h-316l-81 -213h-74l288 706h56zM461 267l-136 361l-138 -361h274z" />
    <glyph glyph-name="mu" unicode="&#xb5;" horiz-adv-x="536" 
d="M510 -2c-17 -5 -25 -6 -37 -6c-54 0 -77 24 -80 81c-33 -60 -72 -85 -135 -85c-52 0 -86 17 -117 59l4 -263h-64v687h61v-246c0 -72 6 -107 23 -133c19 -29 56 -48 93 -48c47 0 88 27 111 72c16 31 20 56 20 128l1 227h60v-357c0 -58 6 -73 33 -73c9 0 14 1 27 7v-50z
" />
    <glyph glyph-name="plusminus" unicode="&#xb1;" horiz-adv-x="724" 
d="M630 348h-238v-229h-60v229h-238v60h238v228h60v-228h238v-60zM630 0h-536v60h536v-60z" />
    <glyph glyph-name="degree" unicode="&#xb0;" horiz-adv-x="354" 
d="M324 601c0 -81 -66 -147 -147 -147s-147 66 -147 147s66 147 147 147c80 0 147 -67 147 -147zM263 601c0 48 -38 87 -86 87s-87 -39 -87 -87s39 -87 87 -87s86 39 86 87z" />
    <glyph glyph-name="registered" unicode="&#xae;" horiz-adv-x="833" 
d="M564 128h-59l-92 198h-74v-198h-54v450h123c65 0 97 -10 121 -37c19 -21 29 -51 29 -89c0 -66 -31 -108 -89 -120zM504 452c0 58 -23 77 -94 77h-71v-156h78c63 0 87 22 87 79zM773 358c0 -203 -156 -361 -356 -361s-356 156 -356 356c0 201 156 356 357 356
c196 0 355 -157 355 -351zM740 352c0 183 -140 325 -322 325c-181 0 -325 -143 -325 -325c0 -179 144 -323 324 -323c179 0 323 144 323 323z" />
    <glyph glyph-name="logicalnot" unicode="&#xac;" horiz-adv-x="724" 
d="M637 0h-61v263h-505v60h566v-323z" />
    <glyph glyph-name="copyright" unicode="&#xa9;" horiz-adv-x="833" 
d="M773 358c0 -203 -156 -361 -356 -361s-356 156 -356 356c0 201 156 356 357 356c196 0 355 -157 355 -351zM740 352c0 183 -140 325 -322 325c-181 0 -325 -143 -325 -325c0 -179 144 -323 324 -323c179 0 323 144 323 323zM606 276c-23 -101 -89 -157 -186 -157
c-120 0 -198 90 -198 226c0 143 84 241 207 241c90 0 149 -47 173 -138l-54 -12c-21 71 -58 100 -124 100c-90 0 -144 -69 -144 -186c0 -114 53 -180 144 -180c67 0 113 39 129 112z" />
    <glyph glyph-name="brokenbar" unicode="&#xa6;" horiz-adv-x="229" 
d="M145 383h-61v395h61v-395zM145 -143h-61v396h61v-396z" />
    <glyph glyph-name="threesuperior" unicode="&#xb3;" horiz-adv-x="375" 
d="M335 393c1 -48 -28 -134 -145 -136c-11 0 -111 -4 -148 88c-11 26 -10 40 -12 52l52 17v-11c0 -96 79 -102 108 -101c75 1 92 50 93 84c0 21 -6 40 -11 48c-19 32 -44 38 -96 38h-66v44h57c44 0 110 3 109 75c0 55 -43 81 -90 81c-76 0 -95 -62 -95 -88c0 -3 1 -6 1 -9
l-55 14c13 51 40 127 153 125c70 -1 135 -37 136 -121c1 -42 -15 -81 -68 -97l7 -2c31 -9 68 -40 70 -101z" />
    <glyph glyph-name="twosuperior" unicode="&#xb2;" horiz-adv-x="375" 
d="M338 572c0 -111 -120 -199 -216 -263h202v-44h-283v42c100 62 183 131 214 173c12 17 32 51 32 94c0 62 -42 98 -100 98c-78 0 -101 -60 -101 -91c-1 -40 26 -68 37 -81l-66 8c-6 16 -18 41 -17 78c1 89 76 128 147 128c86 -1 151 -50 151 -142z" />
    <glyph glyph-name="onesuperior" unicode="&#xb9;" horiz-adv-x="375" 
d="M228 265h-48v345l-4 -2c-16 -8 -30 -11 -63 -11h-11v44c58 0 78 20 78 57v8h48v-441z" />
    <glyph glyph-name="threequarters" unicode="&#xbe;" horiz-adv-x="875" 
d="M845 108h-66v-108h-48v108h-192v38l191 296h49v-290h66v-44zM673 730l-353 -769l-40 18l352 770zM335 393c1 -48 -28 -134 -145 -136c-11 0 -111 -4 -148 88c-11 26 -10 40 -12 52l52 17v-11c0 -96 79 -102 108 -101c75 1 92 50 93 84c0 21 -6 40 -11 48
c-19 32 -44 38 -96 38h-66v44h57c44 0 110 3 109 75c0 55 -43 81 -90 81c-76 0 -95 -62 -95 -88c0 -3 1 -6 1 -9l-55 14c13 51 40 127 153 125c70 -1 135 -37 136 -121c1 -42 -15 -81 -68 -97l7 -2c31 -9 68 -40 70 -101zM731 152v206l-135 -206h135z" />
    <glyph glyph-name="onehalf" unicode="&#xbd;" horiz-adv-x="875" 
d="M838 307c0 -83 -60 -159 -216 -263h202v-44h-283v42c99 62 185 134 214 173c30 42 32 81 32 94c0 60 -40 98 -100 98c-80 0 -101 -63 -101 -91c0 -40 27 -69 37 -81l-66 8c-6 16 -18 41 -17 78c1 90 76 128 147 128c87 -1 151 -51 151 -142zM614 730l-353 -769l-40 18
l352 770zM228 265h-48v345l-4 -2c-16 -8 -30 -11 -63 -11h-11v44c58 0 78 20 78 57v8h48v-441z" />
    <glyph glyph-name="onequarter" unicode="&#xbc;" horiz-adv-x="875" 
d="M845 108h-66v-108h-48v108h-192v38l191 296h49v-290h66v-44zM638 730l-353 -769l-40 18l351 770zM228 265h-48v345l-4 -2c-16 -8 -30 -11 -63 -11h-11v44c58 0 78 20 78 57v8h48v-441zM731 152v206l-135 -206h135z" />
    <glyph glyph-name="Euro" unicode="&#x20ac;" horiz-adv-x="634" 
d="M614 620l-27 -66c-44 71 -115 96 -196 96c-131 0 -201 -93 -222 -214h374l-19 -53h-360c-2 -10 -2 -19 -2 -29s0 -20 1 -30h338l-19 -53h-315c16 -132 94 -231 234 -231c67 0 147 27 191 80v-77c-64 -46 -119 -61 -197 -61c-177 0 -278 120 -298 289h-76l20 53h52
c0 20 1 39 2 59h-74l19 53h61c21 163 133 271 300 271c83 0 158 -22 213 -87z" />
    </font>
</defs>
</svg>
