<?xml version="1.0" standalone="no"?>
<!DOCTYPE svg PUBLIC "-//W3C//DTD SVG 1.1//EN" "http://www.w3.org/Graphics/SVG/1.1/DTD/svg11.dtd" >
<svg xmlns="http://www.w3.org/2000/svg" xmlns:xlink="http://www.w3.org/1999/xlink" version="1.1">
<metadata>
Created by FontForge 20201107 at Thu May 17 17:59:59 2007
 By Unknown
Copyright (c) 1997, 2001, Berthold LLC. All rights reserved. Akzidenz-Grotesk is a trademark of Berthold Types Limited.
</metadata>
<defs>
<font id="AkzidenzGroteskBQ-Ext" horiz-adv-x="729" >
  <font-face 
    font-family="Akzidenz-Grotesk BQ"
    font-weight="500"
    font-stretch="normal"
    units-per-em="1000"
    panose-1="0 0 0 0 0 0 0 0 0 0"
    ascent="800"
    descent="-200"
    x-height="488"
    cap-height="706"
    bbox="-104 -235 1470 929"
    underline-thickness="75"
    underline-position="-213"
    stemh="20"
    stemv="94"
    unicode-range="U+0020-2122"
  />
<missing-glyph horiz-adv-x="500" 
 />
    <glyph glyph-name=".notdef" horiz-adv-x="500" 
 />
    <glyph glyph-name="space" unicode=" " horiz-adv-x="333" 
 />
    <glyph glyph-name="exclam" unicode="!" horiz-adv-x="292" 
d="M218 400l-28 -221h-44l-29 220v291h101v-290zM218 0h-100v100h100v-100z" />
    <glyph glyph-name="quotedbl" unicode="&#x22;" horiz-adv-x="350" 
d="M322 743l-33 -290h-38l-34 290h105zM133 743l-33 -290h-38l-34 290h105z" />
    <glyph glyph-name="numbersign" unicode="#" horiz-adv-x="749" 
d="M710 409h-179l-9 -97h176v-71h-183l-23 -241h-78l26 241h-141l-26 -241h-74l23 241h-182v71h190l9 97h-186v74h192l21 223h78l-22 -223h140l21 223h76l-22 -223h173v-74zM455 409h-140l-10 -97h141z" />
    <glyph glyph-name="dollar" unicode="$" horiz-adv-x="771" 
d="M738 206c-1 -76 -37 -139 -103 -177s-138 -41 -211 -44v-119h-77v120c-30 2 -60 4 -90 10c-29 6 -135 28 -204 107c-10 11 -24 31 -32 43l96 36c29 -35 57 -73 147 -97c28 -8 41 -10 55 -12c10 -1 19 -2 29 -3v255c-69 5 -157 12 -217 51c-24 16 -73 55 -72 134
c0 36 10 111 91 160c62 37 129 43 198 48v97h79l1 -99c23 -1 46 -3 69 -7c30 -5 127 -22 195 -92c8 -8 16 -18 29 -37l-95 -36c-7 9 -14 17 -22 24c-22 21 -65 49 -137 63c-13 2 -27 4 -41 5l1 -225c21 -1 42 -3 64 -5c78 -7 162 -20 212 -89c33 -45 35 -90 35 -111z
M348 416v225c-12 -1 -81 -4 -131 -29c-14 -7 -63 -34 -62 -90c0 -12 1 -33 20 -54c31 -34 83 -43 173 -52zM642 202c0 11 -1 45 -26 69c-33 33 -93 42 -191 50l1 -253c8 0 17 1 26 1c14 1 94 4 145 42c16 12 45 39 45 91z" />
    <glyph glyph-name="percent" unicode="%" horiz-adv-x="1042" 
d="M1012 221c0 -100 -47 -158 -77 -183c-19 -16 -39 -27 -61 -34c-22 -6 -42 -8 -65 -8c-9 0 -34 0 -60 8c-63 19 -96 67 -108 86c-12 21 -31 66 -31 129c0 24 3 93 49 152c19 25 68 75 155 75c65 0 108 -32 126 -47c50 -44 72 -113 72 -178zM760 670l-432 -682l-49 30
l432 683zM428 469c0 -100 -47 -158 -77 -183c-18 -15 -39 -27 -61 -34s-42 -9 -65 -9c-9 0 -34 0 -60 8c-63 18 -96 67 -108 87c-11 20 -31 65 -31 128c0 25 3 94 49 153c19 24 69 74 155 74c65 0 108 -31 126 -47c50 -44 72 -113 72 -177zM941 220c0 81 -31 123 -60 145
c-21 15 -45 22 -71 22c-32 0 -55 -13 -65 -20c-28 -20 -65 -66 -65 -150c0 -125 73 -162 130 -162c93 1 131 84 131 165zM358 467c-1 82 -32 124 -61 145c-21 15 -45 23 -70 23c-12 0 -39 -2 -65 -21c-29 -20 -65 -66 -65 -150c1 -125 73 -162 129 -162c94 0 132 84 132 165
z" />
    <glyph glyph-name="ampersand" unicode="&#x26;" horiz-adv-x="771" 
d="M745 4c-25 -7 -36 -9 -49 -9c-14 0 -26 2 -39 6c-28 9 -49 25 -96 58c-13 -8 -26 -16 -39 -23c-35 -19 -113 -54 -220 -54c-30 0 -157 -1 -227 95c-24 33 -36 66 -36 108c0 47 14 75 25 91c37 57 106 80 165 102c-19 18 -69 60 -69 138c0 37 10 60 17 73
c21 38 72 87 174 86c16 0 65 0 109 -27c22 -13 72 -54 72 -128c0 -89 -68 -132 -93 -146c-14 -7 -28 -13 -57 -24c42 -42 85 -85 131 -124l50 -43l24 39c32 51 30 87 32 114l86 2c-2 -22 -5 -45 -10 -67c-17 -72 -53 -118 -69 -141c8 -7 17 -14 25 -20c42 -30 70 -28 94 -25
v-81zM436 518c0 52 -37 87 -88 87c-48 0 -91 -32 -91 -83c0 -16 4 -36 23 -63c16 -22 28 -34 48 -50c7 1 13 3 19 5c18 6 89 30 89 104zM493 115c-36 32 -72 64 -106 97c-35 34 -68 69 -102 103c-13 -4 -26 -7 -39 -12c-80 -27 -106 -68 -106 -110c0 -31 13 -53 19 -63
c20 -30 70 -67 157 -67c68 0 129 25 148 34c10 5 20 11 29 18z" />
    <glyph glyph-name="quoteright" unicode="&#x2019;" horiz-adv-x="250" 
d="M185 577c0 -53 -12 -91 -67 -108c-14 -4 -29 -3 -43 -7v55c35 4 45 14 45 49v31h-45v109h110v-129z" />
    <glyph glyph-name="parenleft" unicode="(" horiz-adv-x="333" 
d="M325 -110l-32 -31c-55 44 -108 89 -151 146c-66 87 -103 197 -103 306c0 184 101 343 250 444l29 -30c-118 -119 -181 -221 -181 -395c0 -122 32 -245 103 -346c25 -35 54 -65 85 -94z" />
    <glyph glyph-name="parenright" unicode=")" horiz-adv-x="333" 
d="M295 300c0 -181 -104 -339 -251 -439l-29 30c117 118 182 220 182 393c0 123 -33 247 -104 348c-25 35 -54 65 -85 94l32 31c55 -45 108 -89 151 -146c67 -89 104 -200 104 -311z" />
    <glyph glyph-name="asterisk" unicode="*" horiz-adv-x="349" 
d="M323 583l-104 -37l63 -83l-48 -37l-66 85l-59 -85l-50 36l59 85l-100 28l17 57l102 -27v103h62v-105l103 34z" />
    <glyph glyph-name="plus" unicode="+" horiz-adv-x="772" 
d="M680 253h-245v-228h-98v228h-245v86h245v226h98v-226h245v-86z" />
    <glyph glyph-name="comma" unicode="," horiz-adv-x="250" 
d="M180 -19c0 -75 -29 -114 -109 -115v55c35 4 45 14 45 49v30h-45v108h109v-127z" />
    <glyph glyph-name="hyphen" unicode="-" horiz-adv-x="385" 
d="M350 259h-315v82h315v-82z" />
    <glyph glyph-name="period" unicode="." horiz-adv-x="250" 
d="M179 0h-110v109h110v-109z" />
    <glyph glyph-name="slash" unicode="/" horiz-adv-x="417" 
d="M411 706l-312 -706h-88l310 706h90z" />
    <glyph glyph-name="zero" unicode="0" horiz-adv-x="708" 
d="M676 340c0 -43 -4 -215 -139 -306c-71 -47 -145 -50 -175 -50c-28 0 -108 2 -177 53c-21 16 -39 36 -45 42c-28 32 -64 84 -81 181c-2 13 -8 50 -8 88c0 125 50 211 80 248c31 39 102 104 231 106c33 0 110 -1 183 -56c12 -9 34 -26 56 -55c31 -41 75 -124 75 -251z
M576 341c0 22 0 110 -41 180c-5 9 -18 30 -40 49c-19 18 -63 53 -134 51c-21 -1 -68 -5 -113 -40c-50 -39 -96 -109 -96 -245c0 -50 6 -91 25 -137c9 -22 20 -40 25 -47c18 -27 68 -87 162 -87c29 0 93 7 145 64c33 37 67 100 67 212z" />
    <glyph glyph-name="one" unicode="1" horiz-adv-x="708" 
d="M429 0h-99v537c-53 -24 -83 -29 -191 -33v68c50 1 87 4 137 32c6 3 27 16 46 36c17 19 30 43 32 47h75v-687z" />
    <glyph glyph-name="two" unicode="2" horiz-adv-x="708" 
d="M640 0h-564v94c40 20 81 39 121 60c49 26 98 54 145 83c21 13 41 26 62 41c62 44 119 92 119 175c0 104 -82 162 -180 162c-21 0 -101 -3 -146 -63c-31 -41 -33 -86 -35 -134l-97 15c2 22 3 44 8 66c6 30 25 89 87 138c31 24 91 61 187 61c29 0 105 -2 174 -50
c62 -43 102 -117 102 -193c0 -31 -6 -93 -56 -154c-57 -70 -157 -121 -236 -163c-20 -11 -36 -19 -56 -29c-26 -12 -82 -35 -82 -35c19 2 37 4 55 6c15 1 30 2 45 2h347v-82z" />
    <glyph glyph-name="three" unicode="3" horiz-adv-x="708" 
d="M648 195c0 -28 -5 -85 -59 -136c-79 -74 -208 -73 -232 -73c-18 0 -38 0 -76 5c-60 8 -109 20 -156 59c-24 20 -37 39 -43 49c-18 28 -26 56 -35 87l94 22c7 -34 13 -47 22 -62c40 -65 127 -79 196 -79c137 1 187 65 186 134c0 29 -10 58 -30 80c-40 43 -120 44 -241 41
l-1 75c39 -1 79 -1 118 2c39 4 76 10 104 40c8 9 23 28 23 61c0 12 -2 38 -21 65c-42 60 -130 59 -147 59c-90 0 -141 -39 -162 -70c-15 -22 -19 -39 -22 -64l-92 17c6 24 10 42 21 65c31 64 99 129 253 129c26 0 113 1 188 -45c74 -46 84 -115 84 -148
c0 -20 -4 -78 -55 -115c-16 -11 -31 -17 -49 -23c6 -2 22 -9 37 -17c31 -17 96 -61 95 -158z" />
    <glyph glyph-name="four" unicode="4" horiz-adv-x="708" 
d="M655 166h-118v-166h-94v166h-400v79l415 443h78v-443h119v-79zM446 565c-17 -21 -34 -41 -52 -61l-243 -259h292v229c0 30 2 61 3 91z" />
    <glyph glyph-name="five" unicode="5" horiz-adv-x="708" 
d="M657 251c0 -36 -8 -120 -83 -186c-35 -31 -107 -79 -226 -79c-135 1 -216 60 -251 101c-32 37 -44 74 -50 92l94 20c12 -27 24 -49 45 -70c25 -25 80 -63 169 -63c15 0 57 1 98 18c64 28 104 90 104 160c0 43 -14 83 -44 113c-52 51 -132 55 -151 55
c-72 0 -148 -29 -192 -87c-7 -9 -9 -11 -17 -27l-77 15l20 375h528l-5 -85h-448l-11 -183c16 13 27 21 44 31c27 15 88 41 170 41c34 0 185 -6 253 -126c11 -19 30 -58 30 -115z" />
    <glyph glyph-name="six" unicode="6" horiz-adv-x="708" 
d="M679 229c0 -19 -3 -70 -31 -119c-10 -17 -23 -32 -36 -45c-47 -46 -97 -67 -162 -77c-27 -4 -53 -4 -62 -4c-95 0 -150 27 -185 50c-15 10 -46 32 -73 69c-64 88 -65 205 -65 235c0 22 0 59 12 109c10 45 38 145 148 208c32 19 89 46 179 46c30 0 48 -3 61 -6
c23 -4 86 -20 141 -62c19 -15 38 -31 67 -71l-93 -35c-5 6 -14 20 -30 36c-56 53 -128 57 -154 57c-28 0 -113 -6 -173 -73c-36 -39 -58 -97 -65 -149c-3 -23 -4 -46 -4 -68c12 28 20 38 30 49c31 34 100 82 213 81c71 0 145 -17 202 -62c29 -23 80 -73 80 -169zM584 223
c0 115 -115 160 -211 157c-97 -3 -149 -50 -169 -84c-18 -31 -20 -60 -20 -73c0 -15 2 -46 23 -78c51 -79 170 -79 186 -79c18 0 84 0 134 38c52 39 57 99 57 119z" />
    <glyph glyph-name="seven" unicode="7" horiz-adv-x="708" 
d="M628 688l-1 -65c-36 -33 -57 -57 -71 -74c-135 -162 -179 -350 -188 -390c-12 -53 -19 -106 -25 -159h-109c9 64 23 182 94 337c5 10 40 84 85 148c39 56 81 100 97 118h-430v85h548z" />
    <glyph glyph-name="eight" unicode="8" horiz-adv-x="708" 
d="M654 191c0 -13 -2 -55 -23 -92c-16 -28 -44 -53 -72 -70c-38 -22 -107 -45 -212 -45c-122 0 -189 32 -231 68c-22 19 -65 62 -65 139c0 84 50 125 76 142c28 17 59 25 68 28c-24 7 -32 11 -43 17c-51 28 -78 75 -78 133c0 20 3 62 35 103c58 75 163 87 248 87
c18 0 35 -1 52 -2c25 -2 119 -9 178 -76c15 -16 41 -52 41 -109c0 -33 -10 -69 -30 -95c-25 -33 -60 -46 -96 -59c25 -6 47 -11 70 -24c52 -30 82 -85 82 -145zM528 507c0 9 -1 34 -15 56c-24 39 -79 64 -175 61c-7 -1 -79 -2 -120 -30c-7 -4 -20 -14 -30 -32
c-13 -22 -14 -42 -14 -53c0 -70 54 -115 180 -115c121 0 174 49 174 113zM555 190c0 13 -3 43 -24 71c-45 58 -139 58 -203 56c-54 -1 -121 -8 -157 -57c-9 -11 -21 -31 -21 -65c0 -17 3 -57 41 -87c48 -37 110 -41 169 -41c11 0 81 -2 130 24c17 9 65 39 65 99z" />
    <glyph glyph-name="nine" unicode="9" horiz-adv-x="708" 
d="M655 358c0 -30 0 -150 -62 -242c-17 -25 -39 -47 -63 -65c-82 -64 -171 -67 -209 -67c-125 0 -200 57 -234 92c-29 31 -43 59 -50 74l89 36c2 -3 13 -25 23 -39c43 -59 99 -83 171 -83c117 1 203 66 234 179c10 37 10 71 11 84c-18 -18 -38 -40 -88 -64
c-69 -34 -127 -36 -157 -36c-66 0 -104 13 -130 23c-7 2 -31 12 -50 24c-9 5 -32 22 -53 45c-20 23 -51 65 -51 141c0 22 3 77 39 128c34 49 118 113 264 113c131 0 206 -53 241 -94c38 -43 75 -118 75 -249zM546 466c0 14 -1 43 -20 74c-23 38 -81 83 -184 82
c-76 0 -121 -23 -147 -42c-54 -39 -60 -92 -60 -118c0 -22 5 -45 15 -64c47 -92 161 -93 184 -93c77 0 126 27 151 45c9 7 31 23 46 52c14 28 15 52 15 64z" />
    <glyph glyph-name="colon" unicode=":" horiz-adv-x="292" 
d="M219 386h-109v108h109v-108zM220 0h-109v107h109v-107z" />
    <glyph glyph-name="semicolon" unicode=";" horiz-adv-x="292" 
d="M220 388h-109v109h109v-109zM220 -19c0 -52 -11 -92 -66 -109c-14 -4 -29 -3 -43 -7v55c34 4 45 15 45 49v31h-45v108h109v-127z" />
    <glyph glyph-name="less" unicode="&#x3c;" horiz-adv-x="772" 
d="M643 23l-542 228v97l542 234v-97l-433 -182l433 -179v-101z" />
    <glyph glyph-name="equal" unicode="=" horiz-adv-x="772" 
d="M678 352h-584v86h584v-86zM678 150h-584v86h584v-86z" />
    <glyph glyph-name="greater" unicode="&#x3e;" horiz-adv-x="772" 
d="M671 257l-541 -234l-1 96l434 182l-433 180v100l541 -227v-97z" />
    <glyph glyph-name="question" unicode="?" horiz-adv-x="667" 
d="M636 504c0 -42 -12 -66 -21 -81c-33 -57 -94 -81 -152 -105c-49 -20 -77 -34 -93 -52c-21 -23 -19 -58 -19 -85h-74v38c0 19 0 37 4 56c12 55 55 73 101 92c30 13 60 25 88 41c56 33 64 74 64 103c0 11 -2 38 -19 64c-33 50 -102 72 -159 72c-69 0 -138 -29 -176 -90
c-13 -22 -21 -45 -28 -70l-88 17c7 24 20 80 64 129c23 26 61 60 138 79c15 4 51 11 95 11c34 0 157 -3 232 -98c39 -50 43 -95 43 -121zM364 0h-101v101h101v-101z" />
    <glyph glyph-name="at" unicode="@" horiz-adv-x="909" 
d="M869 416c0 -176 -125 -346 -255 -346c-57 0 -89 30 -90 86c-26 -29 -38 -40 -59 -54c-31 -21 -62 -31 -99 -31c-88 0 -142 63 -142 165c0 148 109 281 232 281c58 0 102 -30 126 -84l16 62h75l-47 -193c-17 -69 -21 -92 -21 -120c0 -37 10 -52 33 -52c14 0 28 5 45 16
c73 48 127 167 127 276c0 143 -113 237 -284 237c-233 0 -422 -186 -422 -416c0 -185 145 -312 354 -312c60 0 121 11 180 33c70 26 106 48 186 113l36 -41c-84 -70 -122 -93 -198 -122c-66 -25 -136 -38 -202 -38c-247 0 -417 148 -417 363c0 263 216 473 485 473
c205 0 341 -118 341 -296zM554 347v10c0 60 -37 97 -90 97c-81 0 -154 -102 -154 -217c0 -63 34 -102 87 -102c80 0 157 104 157 212z" />
    <glyph glyph-name="A" unicode="A" horiz-adv-x="833" 
d="M834 0h-116l-86 174h-434l-86 -174h-113l366 706h107zM589 255l-173 350l-176 -350h349z" />
    <glyph glyph-name="B" unicode="B" horiz-adv-x="896" 
d="M838 197c0 -19 -1 -61 -30 -105c-60 -91 -175 -92 -270 -92h-453v706h453c18 0 35 0 53 -1c64 -4 131 -19 174 -70c27 -33 38 -71 38 -112c0 -79 -43 -117 -70 -132c-8 -5 -29 -13 -29 -13c18 -6 51 -16 84 -50c20 -20 50 -60 50 -131zM699 516c0 18 -4 60 -47 87
c-35 22 -76 22 -115 22h-351v-217h369c46 0 95 1 125 44c7 10 19 32 19 64zM733 206c0 12 0 41 -20 69c-34 49 -91 52 -145 52h-382v-245h382c52 0 106 5 142 50c9 12 24 36 23 74z" />
    <glyph glyph-name="C" unicode="C" horiz-adv-x="917" 
d="M887 193c-23 -41 -36 -59 -50 -76c-115 -135 -319 -135 -360 -135c-140 0 -222 39 -272 71c-18 12 -32 23 -48 37c-10 10 -32 32 -52 64c-25 38 -56 99 -56 204c0 34 2 127 62 210c10 15 23 31 51 56c25 21 54 41 82 55c91 46 204 48 231 48c33 0 164 -3 266 -65
c14 -9 43 -28 73 -59c32 -34 49 -65 58 -81l-107 -23c-6 11 -12 21 -19 31c-16 22 -40 44 -63 58c-33 21 -104 51 -204 51c-28 0 -137 -1 -219 -59c-8 -5 -23 -17 -40 -36c-27 -29 -65 -85 -65 -185c0 -29 3 -109 56 -178c63 -82 167 -101 197 -106c34 -5 70 -5 81 -5
c32 0 169 -1 253 91c17 18 27 33 39 54z" />
    <glyph glyph-name="D" unicode="D" horiz-adv-x="875" 
d="M823 358c0 -102 -39 -207 -119 -274c-96 -81 -219 -84 -337 -84h-282v706h351c20 0 39 0 59 -1c32 -1 108 -7 183 -56c99 -65 145 -174 145 -291zM721 362c-1 116 -59 220 -176 251c-34 9 -74 10 -109 10h-250v-538h206c19 0 37 1 55 2c30 1 117 3 189 66
c80 71 85 175 85 209z" />
    <glyph glyph-name="E" unicode="E" horiz-adv-x="792" 
d="M762 0h-677v706h651v-87h-551v-210h537v-84h-537v-238h577v-87z" />
    <glyph glyph-name="F" unicode="F" horiz-adv-x="750" 
d="M713 619h-529v-226h509v-83h-509v-310h-99v706h628v-87z" />
    <glyph glyph-name="G" unicode="G" horiz-adv-x="917" 
d="M848 0h-87v97c-15 -15 -30 -29 -47 -41c-40 -28 -132 -72 -261 -72c-190 0 -292 98 -335 157c-24 32 -69 106 -69 214c0 34 5 117 58 197c14 21 28 38 46 55c48 45 151 116 318 116c40 0 136 -3 236 -55c51 -26 79 -53 95 -71c16 -17 23 -25 42 -60l-98 -30
c-7 10 -17 27 -38 47c-34 31 -110 83 -230 83c-22 0 -77 -2 -135 -22c-115 -40 -187 -132 -187 -256c0 -63 23 -135 64 -184c83 -101 218 -107 255 -107c98 0 208 42 261 129c19 32 23 56 28 91h-311v84h395v-372z" />
    <glyph glyph-name="H" unicode="H" horiz-adv-x="917" 
d="M828 0h-101v334h-541v-334h-102v706h101v-288h541v288h102v-706z" />
    <glyph glyph-name="I" unicode="I" horiz-adv-x="271" 
d="M186 0h-102v706h102v-706z" />
    <glyph glyph-name="J" unicode="J" horiz-adv-x="708" 
d="M621 240c0 -14 3 -70 -16 -116c-44 -103 -173 -141 -273 -141c-20 0 -53 1 -100 11c-145 31 -183 127 -204 181l102 19c7 -15 29 -64 72 -92c47 -30 105 -30 121 -30c18 0 89 1 139 32c7 5 31 22 45 51c10 22 14 41 14 88v463h100v-466z" />
    <glyph glyph-name="K" unicode="K" horiz-adv-x="833" 
d="M854 0h-134l-319 380l-219 -161v-219h-97v706h99v-376l509 376h147l-357 -266z" />
    <glyph glyph-name="L" unicode="L" horiz-adv-x="646" 
d="M654 0h-569v706h100v-620h469v-86z" />
    <glyph glyph-name="M" unicode="M" horiz-adv-x="1000" 
d="M934 0h-95l5 606l-289 -606h-94l-288 606l5 -606h-94v706h138l288 -598l288 598h136v-706z" />
    <glyph glyph-name="N" unicode="N" horiz-adv-x="917" 
d="M829 0h-98l-553 584l2 -584h-96v706h103l549 -583l-3 583h96v-706z" />
    <glyph glyph-name="O" unicode="O" horiz-adv-x="958" 
d="M906 343c0 -41 -6 -151 -92 -240c-49 -51 -157 -122 -334 -122c-18 0 -59 1 -108 9c-48 7 -191 33 -273 165c-48 78 -51 158 -51 190c0 81 21 162 71 225c10 13 23 28 51 51c48 40 145 102 304 102c32 0 128 -3 219 -45c58 -27 114 -71 151 -124c58 -84 62 -177 62 -211z
M805 353c0 60 -16 102 -26 123c-76 163 -277 162 -317 161c-30 -1 -157 -8 -239 -90c-14 -14 -42 -45 -59 -95c-11 -32 -16 -69 -16 -103c0 -26 3 -102 51 -167c10 -13 25 -31 56 -53c41 -29 110 -61 227 -61c19 0 66 0 119 14c99 26 171 92 195 192c3 14 9 43 9 79z" />
    <glyph glyph-name="P" unicode="P" horiz-adv-x="812" 
d="M798 490c0 -28 -5 -107 -74 -159c-61 -47 -127 -48 -200 -48h-339v-283h-102v706h432c18 0 36 -1 54 -2c31 -3 133 -7 193 -93c24 -35 36 -78 36 -121zM689 496c0 13 -1 46 -25 76c-40 50 -108 50 -165 50h-315v-255h326c55 0 115 2 153 49c11 13 26 38 26 80z" />
    <glyph glyph-name="Q" unicode="Q" horiz-adv-x="979" 
d="M948 9l-51 -73l-166 93c-17 -7 -34 -14 -52 -20c-60 -19 -129 -27 -192 -27c-44 0 -202 3 -319 100c-23 19 -43 42 -60 66c-41 60 -59 121 -59 194c0 33 4 119 54 198c18 28 39 51 62 72c55 49 152 111 326 111c38 0 152 -3 255 -63c18 -10 55 -34 91 -73
c84 -91 90 -187 90 -234c0 -36 -4 -127 -67 -211c-16 -21 -31 -36 -50 -54zM826 350c0 39 -5 136 -90 209c-72 62 -167 81 -260 79c-29 -1 -172 -5 -257 -96c-14 -15 -38 -44 -54 -93c-14 -44 -15 -82 -15 -99c0 -16 0 -43 10 -79c9 -36 29 -97 105 -147
c43 -28 108 -58 225 -58c30 0 150 -2 238 68c21 17 36 35 42 42c22 29 56 84 56 174z" />
    <glyph glyph-name="R" unicode="R" horiz-adv-x="896" 
d="M896 0h-131l-239 283h-341v-283h-101v706h481c60 0 82 -3 112 -11c95 -25 149 -99 149 -196c0 -38 -8 -137 -114 -181c-18 -7 -37 -13 -77 -19zM722 495c0 13 -1 40 -18 69c-30 53 -77 58 -132 58h-388v-256h349c57 0 124 2 163 52c10 12 26 36 26 77z" />
    <glyph glyph-name="S" unicode="S" horiz-adv-x="812" 
d="M763 213c0 -60 -22 -99 -36 -118c-63 -88 -182 -102 -208 -105c-16 -2 -57 -7 -102 -7c-20 0 -107 2 -182 21c-16 4 -41 10 -76 25c-37 16 -62 34 -74 43c-38 29 -55 55 -66 71l93 38c5 -6 9 -11 15 -17c15 -15 48 -41 97 -61c81 -33 177 -34 200 -34c18 0 124 -3 192 48
c42 32 48 76 48 95c0 41 -23 71 -60 87c-52 23 -174 30 -230 35c-135 11 -201 18 -253 66c-48 44 -50 94 -50 118c0 99 68 144 98 160c42 23 119 46 233 46c140 0 224 -34 275 -67c12 -8 22 -15 32 -24c23 -19 40 -44 46 -51l-92 -37c-5 5 -23 23 -43 37
c-39 27 -106 59 -217 59c-72 0 -128 -13 -154 -23c-61 -23 -78 -65 -78 -95c0 -15 4 -31 12 -44c25 -40 75 -44 116 -49c78 -10 156 -14 234 -23c109 -13 159 -41 193 -83c35 -45 37 -90 37 -111z" />
    <glyph glyph-name="T" unicode="T" horiz-adv-x="708" 
d="M691 622h-289v-622h-100v622h-288v84h677v-84z" />
    <glyph glyph-name="U" unicode="U" horiz-adv-x="896" 
d="M808 281c0 -47 -1 -87 -20 -132c-55 -134 -212 -166 -340 -166c-34 0 -163 -1 -263 69c-42 29 -61 60 -71 78c-28 52 -30 104 -30 161v415h101v-419c0 -8 -1 -38 4 -66c10 -65 43 -88 68 -104c35 -22 93 -47 192 -47c13 0 132 0 200 50c24 18 38 42 42 51
c16 33 16 66 16 103v432h101v-425z" />
    <glyph glyph-name="V" unicode="V" horiz-adv-x="771" 
d="M772 706l-333 -706h-101l-339 706h111l280 -595l272 595h110z" />
    <glyph glyph-name="W" unicode="W" horiz-adv-x="1104" 
d="M1102 706l-233 -706h-111l-208 578l-209 -578h-114l-230 706h107l184 -595l218 595h89l217 -592l184 592h106z" />
    <glyph glyph-name="X" unicode="X" horiz-adv-x="854" 
d="M854 0h-141l-290 309l-288 -309h-137l361 374l-317 332h138l244 -267l247 267h137l-323 -331z" />
    <glyph glyph-name="Y" unicode="Y" horiz-adv-x="812" 
d="M811 706l-358 -433v-273h-99v275l-352 431h129l273 -346l279 346h128z" />
    <glyph glyph-name="Z" unicode="Z" horiz-adv-x="771" 
d="M735 0h-705v84l553 536h-511v86h653v-83l-554 -535h564v-88z" />
    <glyph glyph-name="bracketleft" unicode="[" horiz-adv-x="375" 
d="M341 689h-122v-766h120v-76h-219v918h221v-76z" />
    <glyph glyph-name="backslash" unicode="\" horiz-adv-x="417" 
d="M411 0h-90l-310 706h88z" />
    <glyph glyph-name="bracketright" unicode="]" horiz-adv-x="375" 
d="M255 -153h-221v76h122v766h-120v76h219v-918z" />
    <glyph glyph-name="asciicircum" unicode="^" horiz-adv-x="772" 
d="M644 286h-105l-151 316l-155 -316h-105l214 420h98z" />
    <glyph glyph-name="underscore" unicode="_" horiz-adv-x="500" 
d="M510 -214h-520v75h520v-75z" />
    <glyph glyph-name="quoteleft" unicode="&#x2018;" horiz-adv-x="250" 
d="M172 469h-110v128c0 53 12 91 67 108c14 4 29 3 43 7v-55c-35 -4 -45 -14 -45 -49v-31h45v-108z" />
    <glyph glyph-name="a" unicode="a" horiz-adv-x="688" 
d="M681 0c-28 -2 -56 -5 -84 -5c-83 0 -90 47 -94 83c-3 -5 -11 -18 -23 -29c-33 -32 -101 -67 -210 -67c-30 0 -60 4 -69 5c-49 8 -90 24 -124 62c-25 29 -38 63 -38 101c0 84 60 120 86 131c47 21 123 22 238 23l139 1c0 43 2 85 -43 109c-21 11 -61 20 -119 20
c-46 0 -112 -4 -151 -35c-9 -7 -12 -11 -22 -29l-96 9c1 4 10 30 22 48c9 13 27 35 63 50c32 13 93 26 179 26c14 0 83 -1 139 -15c13 -3 64 -14 93 -53c24 -32 24 -65 24 -102v-178c0 -31 0 -50 4 -63c5 -15 17 -29 51 -29c9 0 17 1 35 3v-66zM503 231h-179
c-74 0 -118 -2 -149 -17c-11 -5 -41 -24 -41 -63c0 -48 44 -96 141 -96c26 0 57 5 63 6c20 3 108 18 147 90c18 34 17 66 18 80z" />
    <glyph glyph-name="b" unicode="b" 
d="M683 245c0 -25 -4 -99 -53 -159c-36 -44 -109 -99 -244 -99c-81 0 -126 16 -159 32c-12 6 -32 15 -54 36v-55h-95v706h95v-275c18 17 36 28 58 38c25 12 80 33 154 33c18 0 54 0 99 -13c120 -33 199 -116 199 -244zM585 243c0 24 -6 86 -59 132c-24 21 -78 55 -163 51
c-31 -1 -62 -9 -90 -21c-95 -41 -106 -126 -106 -165c0 -15 0 -41 16 -74c46 -98 176 -100 197 -100c17 0 78 1 128 33c24 16 77 61 77 144z" />
    <glyph glyph-name="c" unicode="c" horiz-adv-x="688" 
d="M662 130c-8 -12 -15 -25 -23 -36c-31 -42 -82 -69 -94 -75c-33 -15 -92 -36 -180 -36c-95 0 -202 22 -266 98c-54 64 -56 135 -56 166c0 51 11 93 41 135c5 6 15 20 30 35c40 38 120 85 254 85c26 0 119 -1 194 -48c12 -7 34 -21 57 -46c17 -19 25 -32 38 -54l-91 -26
c-13 22 -22 32 -30 40c-58 56 -147 59 -168 59c-23 0 -90 -3 -148 -42c-69 -47 -76 -115 -76 -146c0 -15 2 -52 24 -88c25 -39 87 -92 201 -92c18 0 105 2 165 51c17 14 25 26 37 44z" />
    <glyph glyph-name="d" unicode="d" 
d="M649 0h-95l-1 64c-10 -9 -21 -18 -32 -25c-31 -20 -94 -48 -186 -48c-30 0 -116 2 -189 56c-32 23 -101 88 -101 201c0 34 7 114 79 178c32 28 104 74 214 74c26 0 102 -3 171 -40c16 -9 21 -11 45 -29v275h95v-706zM559 249c0 23 -1 78 -50 122c-60 54 -147 53 -167 53
c-32 0 -63 -6 -92 -18c-98 -42 -106 -130 -106 -166c0 -31 6 -59 22 -85c22 -37 77 -86 181 -86c64 0 143 20 182 74c13 18 30 53 30 106z" />
    <glyph glyph-name="e" unicode="e" horiz-adv-x="688" 
d="M643 233h-501c7 -47 16 -79 51 -112c24 -23 78 -60 163 -60c58 0 116 18 156 61c14 15 20 27 30 45l91 -25c-7 -15 -15 -30 -25 -44c-31 -45 -81 -71 -96 -78c-27 -13 -88 -35 -169 -35c-158 0 -298 88 -299 263c0 15 2 51 17 91c49 129 179 154 219 160c11 2 33 5 61 5
c42 0 164 -6 245 -109c15 -19 47 -61 55 -125c2 -13 2 -25 2 -37zM536 304c-21 58 -48 81 -72 97c-8 5 -26 16 -52 24c-13 4 -33 8 -65 8c-74 0 -142 -27 -183 -92c-8 -12 -10 -15 -19 -37h391z" />
    <glyph glyph-name="f" unicode="f" horiz-adv-x="313" 
d="M315 705l-1 -85c-6 2 -33 9 -58 9c-7 0 -60 2 -73 -40c-4 -12 -4 -23 -4 -34v-67h134v-65h-134v-423h-94v424h-79v64h80v54c0 8 -1 48 8 79c12 42 47 91 144 91c18 0 39 -1 77 -7z" />
    <glyph glyph-name="g" unicode="g" 
d="M649 28c0 -11 3 -59 -10 -98c-7 -23 -20 -56 -66 -85c-44 -29 -112 -54 -231 -54c-14 0 -105 1 -169 27c-6 2 -25 10 -41 21c-12 8 -21 16 -30 26c-33 39 -35 89 -36 104l100 4c1 -29 5 -46 29 -65c40 -31 110 -37 158 -37c61 0 157 11 191 73c14 25 14 50 14 78v56
c-15 -12 -31 -24 -47 -34c-73 -46 -156 -49 -184 -49c-32 0 -165 6 -238 105c-43 58 -45 116 -45 143c0 45 10 78 16 94c59 157 239 160 278 160c27 0 108 -2 181 -41c14 -8 26 -17 39 -26v58h91v-460zM556 250c0 13 -2 44 -19 76c-37 69 -121 96 -195 94
c-105 -2 -199 -61 -199 -176c0 -10 1 -37 12 -63c43 -104 167 -106 191 -106c48 0 89 8 130 34c23 15 80 58 80 141z" />
    <glyph glyph-name="h" unicode="h" 
d="M648 0h-95v250c0 32 -1 62 -13 91c-27 61 -102 82 -163 82c-20 0 -83 -2 -138 -38c-17 -11 -33 -25 -47 -41c-8 -10 -13 -17 -20 -28v-316h-95v706h96v-271c9 7 18 14 28 20c33 21 94 48 191 48c147 0 216 -70 240 -129c15 -35 16 -69 16 -107v-267z" />
    <glyph glyph-name="i" unicode="i" horiz-adv-x="250" 
d="M170 570h-94v96h94v-96zM172 0h-95v488h95v-488z" />
    <glyph glyph-name="j" unicode="j" horiz-adv-x="250" 
d="M172 569h-95v96h95v-96zM172 -24c0 -40 -1 -58 -6 -78c-26 -101 -129 -101 -156 -101c-32 1 -53 5 -84 11v89c26 -9 42 -14 70 -14c12 0 62 1 77 48c3 9 5 19 5 39v518h94v-512z" />
    <glyph glyph-name="k" unicode="k" horiz-adv-x="688" 
d="M705 0h-140l-256 236l-134 -103v-133h-97v706h97v-471l307 253h147l-245 -192z" />
    <glyph glyph-name="l" unicode="l" horiz-adv-x="250" 
d="M171 0h-94v706h94v-706z" />
    <glyph glyph-name="m" unicode="m" horiz-adv-x="1167" 
d="M1085 0h-95v247c0 32 1 65 -13 95c-16 35 -64 77 -155 77c-101 0 -161 -49 -180 -85c-10 -19 -14 -37 -14 -80v-254h-95v251c0 24 -1 49 -7 72c-27 95 -132 96 -155 96s-89 -4 -146 -47c-7 -5 -25 -19 -38 -42c-14 -27 -14 -52 -14 -82v-248h-96v488h96v-67
c18 17 28 24 37 31c28 18 91 47 179 47c18 0 106 -1 165 -46c14 -11 21 -18 41 -43c12 13 24 24 39 35c33 23 97 55 198 55c91 0 202 -33 239 -126c11 -28 14 -52 14 -111v-263z" />
    <glyph glyph-name="n" unicode="n" 
d="M649 0h-94v258c0 42 -4 60 -13 80c-18 42 -68 83 -168 83c-48 0 -75 -9 -95 -16c-15 -6 -71 -26 -94 -87c-11 -28 -12 -56 -12 -86v-232h-95v488h95v-59c17 14 35 31 74 47c29 12 76 26 144 26c121 0 210 -49 242 -122c16 -38 16 -76 16 -116v-264z" />
    <glyph glyph-name="o" unicode="o" 
d="M682 242c0 -20 -2 -74 -34 -126c-35 -57 -123 -131 -283 -131c-18 0 -76 1 -131 17c-44 13 -189 69 -189 232c0 25 3 79 38 135c80 126 242 131 279 131c23 0 107 -2 179 -36c11 -5 28 -13 50 -31c14 -11 30 -27 41 -40c19 -23 50 -73 50 -151zM587 244
c0 14 -2 50 -23 85c-57 94 -184 93 -206 93c-57 -1 -114 -15 -158 -53c-38 -32 -59 -78 -59 -129c0 -17 2 -55 29 -92c28 -38 89 -84 200 -84c48 0 95 11 137 38c24 15 80 58 80 142z" />
    <glyph glyph-name="p" unicode="p" 
d="M681 248c0 -26 -4 -96 -51 -157c-32 -41 -101 -100 -228 -100c-103 0 -173 31 -206 55c-6 4 -12 10 -24 22v-263h-95v683h95v-52c4 4 27 20 48 31c46 23 110 33 163 33c129 0 208 -57 241 -95c7 -8 18 -22 30 -43c19 -35 27 -73 27 -114zM578 251c0 20 -3 67 -39 108
s-87 56 -103 60c-15 3 -31 6 -63 6c-23 0 -90 0 -146 -46c-59 -48 -60 -112 -60 -138c0 -45 12 -71 23 -88c37 -60 119 -86 187 -86c13 0 49 2 85 15c105 39 116 130 116 169z" />
    <glyph glyph-name="q" unicode="q" 
d="M648 -197h-94v246c-14 -9 -28 -19 -43 -27c-68 -36 -142 -37 -167 -37c-32 0 -122 2 -200 57c-36 25 -100 82 -100 196c0 170 145 261 301 261c57 0 115 -13 164 -39c18 -10 28 -17 44 -29v57h95v-685zM561 245c0 30 -6 59 -21 86c-22 39 -81 94 -191 91
c-106 -2 -158 -54 -180 -92c-22 -37 -24 -74 -24 -89c0 -24 7 -85 57 -130c43 -38 100 -52 155 -52c112 0 204 65 204 186z" />
    <glyph glyph-name="r" unicode="r" horiz-adv-x="417" 
d="M417 401c-18 5 -37 11 -75 11c-17 0 -129 3 -161 -85c-7 -21 -8 -41 -8 -63v-264h-95v488h94l1 -55c7 7 12 13 27 23c25 17 83 46 161 46c28 0 44 -5 56 -8v-93z" />
    <glyph glyph-name="s" unicode="s" horiz-adv-x="667" 
d="M621 147c0 -11 -1 -40 -16 -67c-59 -105 -250 -98 -254 -98c-33 0 -220 0 -333 102l82 54c5 -4 28 -22 50 -34c77 -40 173 -42 196 -42c2 0 90 0 135 24c21 11 39 30 39 55c0 13 -5 32 -31 45c-43 23 -135 20 -254 33c-42 5 -89 13 -125 39c-30 22 -46 56 -46 94
c0 54 31 96 78 120c68 35 183 35 193 35c76 0 156 -13 224 -49c33 -18 48 -30 60 -42l-83 -46c-80 55 -178 57 -208 57c-69 0 -112 -10 -138 -29c-18 -14 -21 -27 -21 -38c0 -9 4 -27 24 -38c34 -20 126 -23 229 -32c75 -6 111 -14 142 -34c38 -25 57 -65 57 -109z" />
    <glyph glyph-name="t" unicode="t" horiz-adv-x="333" 
d="M322 423h-139v-261c0 -6 0 -21 2 -38c3 -26 15 -47 66 -47c30 0 60 6 69 7l-1 -84c-31 -4 -62 -7 -94 -7c-36 0 -79 4 -107 31c-24 24 -28 50 -28 111v288h-83v65h85v169h94v-169h136v-65z" />
    <glyph glyph-name="u" unicode="u" 
d="M646 0h-93l-1 61c-9 -8 -24 -21 -50 -37c-64 -39 -142 -41 -164 -41c-16 0 -50 1 -92 11c-20 4 -114 25 -151 103c-20 41 -20 91 -20 135v256h94v-246c0 -49 4 -74 13 -96c35 -81 157 -79 167 -79c103 0 166 49 187 85c15 26 15 49 15 78v258h95v-488z" />
    <glyph glyph-name="v" unicode="v" horiz-adv-x="604" 
d="M603 488l-252 -488h-106l-246 488h105l194 -392l197 392h108z" />
    <glyph glyph-name="w" unicode="w" horiz-adv-x="896" 
d="M892 488l-198 -488h-108l-150 395l-142 -395h-108l-187 488h103l138 -391l137 391h118l145 -394l149 394h103z" />
    <glyph glyph-name="x" unicode="x" horiz-adv-x="625" 
d="M628 0h-135l-177 197l-185 -197h-133l250 257l-222 231h132l156 -171l159 171h128l-221 -230z" />
    <glyph glyph-name="y" unicode="y" horiz-adv-x="604" 
d="M603 489l-276 -536c-33 -65 -70 -124 -186 -123c-46 1 -100 10 -111 12v86c50 -11 76 -15 100 -15c59 0 85 23 118 84l-248 492h108l191 -394l198 394h106z" />
    <glyph glyph-name="z" unicode="z" horiz-adv-x="604" 
d="M580 0h-556v79l403 330l-372 -1v80h506v-74l-402 -331l421 1v-84z" />
    <glyph glyph-name="braceleft" unicode="{" horiz-adv-x="344" 
d="M315 -155h-65c-53 0 -87 11 -111 37c-11 11 -18 24 -22 39c-6 22 -8 32 -8 83v165c0 42 -2 52 -12 69c-13 21 -30 28 -82 31v74c36 2 49 5 63 13c8 4 14 10 19 18c9 15 13 27 13 69v165c0 51 1 62 7 83c13 51 59 77 133 77h65v-69l-36 -1c-27 -1 -43 -4 -54 -15
c-5 -6 -10 -14 -12 -22c-3 -9 -4 -18 -4 -27v-195c0 -36 -5 -60 -15 -79c-5 -11 -13 -20 -23 -28c-13 -11 -24 -16 -53 -25c30 -11 41 -17 53 -27c26 -20 37 -50 37 -106v-196c0 -9 2 -18 5 -27c8 -26 27 -37 66 -37h36v-69z" />
    <glyph glyph-name="bar" unicode="|" horiz-adv-x="229" 
d="M164 -153h-99v918h99v-918z" />
    <glyph glyph-name="braceright" unicode="}" horiz-adv-x="344" 
d="M328 269c-36 -2 -49 -5 -63 -13c-8 -4 -14 -10 -19 -18c-9 -15 -13 -27 -13 -69v-165c0 -51 -1 -62 -7 -83c-13 -51 -59 -77 -133 -77h-65v69l36 1c27 1 43 4 54 15c5 6 10 14 12 22c3 9 4 18 4 27v195c0 36 5 60 15 79c5 11 13 20 23 28c13 11 24 16 53 25
c-30 11 -41 17 -53 27c-26 20 -37 50 -37 106v196c0 9 -2 18 -5 27c-8 26 -27 37 -66 37h-36v69h65c53 0 87 -11 111 -37c11 -11 18 -24 22 -39c6 -22 8 -32 8 -83v-165c0 -42 2 -52 12 -69c13 -21 30 -28 82 -31v-74z" />
    <glyph glyph-name="asciitilde" unicode="~" 
d="M605 295c-34 -42 -81 -80 -138 -80c-75 0 -138 70 -208 70c-48 0 -69 -32 -95 -67l-40 71c31 47 72 85 132 85c76 0 157 -70 213 -70c40 0 75 33 98 62z" />
    <glyph glyph-name="exclamdown" unicode="&#xa1;" horiz-adv-x="292" 
d="M171 590h-101v101h101v-101zM171 0h-100v296l28 215h43l29 -213v-298z" />
    <glyph glyph-name="cent" unicode="&#xa2;" horiz-adv-x="688" 
d="M662 130c-65 -116 -169 -136 -260 -145v-105h-71v104c-218 9 -286 146 -288 254c-2 178 144 252 288 262v90h71v-89c145 -16 202 -60 255 -148l-92 -26c-39 72 -103 88 -163 98v-365c3 1 96 8 147 64c8 8 16 21 21 30zM331 60v365c-151 -22 -190 -120 -188 -187
c2 -70 43 -159 188 -178z" />
    <glyph glyph-name="sterling" unicode="&#xa3;" 
d="M707 230c0 -15 0 -30 -1 -45c-1 -24 -3 -110 -69 -162c-29 -24 -67 -35 -105 -35c-72 0 -127 34 -185 71c-9 -8 -17 -17 -27 -25c-57 -43 -129 -47 -150 -47c-63 0 -94 22 -113 43c-9 10 -27 34 -27 71c0 10 1 31 14 54c15 28 51 60 123 60c54 0 88 -13 136 -35
c0 11 -1 23 -2 34c-5 47 -29 74 -60 108h-179v68h124c-14 17 -54 64 -54 132c0 83 49 129 73 147c37 28 94 56 197 56c141 0 216 -63 248 -112c31 -47 35 -96 38 -115l-96 -22c-4 56 -21 100 -69 133c-49 34 -102 35 -123 35c-16 0 -89 -1 -134 -47c-10 -10 -33 -37 -33 -78
c0 -23 8 -49 39 -87c7 -9 16 -17 24 -26c4 -5 9 -11 13 -16h208v-69h-159c9 -17 35 -61 35 -118c0 -31 -8 -57 -10 -67c12 -7 23 -14 35 -21c34 -19 65 -38 106 -38c11 0 32 0 53 19c37 32 37 90 37 134h93zM279 108c-9 5 -18 11 -28 16c-35 17 -72 21 -85 21
c-3 0 -15 0 -26 -4c-6 -2 -32 -11 -32 -38c1 -35 42 -45 69 -45c58 0 89 35 102 50z" />
    <glyph glyph-name="yen" unicode="&#xa5;" horiz-adv-x="812" 
d="M811 701l-256 -308h152v-73h-213l-41 -50v-9l254 -1v-75h-254v-185h-99v185h-254v74h254v14l-39 47h-215v73h155l-253 308h129l277 -349l275 349h128z" />
    <glyph glyph-name="florin" unicode="&#x192;" horiz-adv-x="313" 
d="M363 696l-10 -85c-30 7 -42 9 -57 9c-40 0 -62 -14 -76 -36c-6 -10 -9 -29 -10 -38l-7 -65h134l-8 -65h-134l-47 -416c-11 -94 -14 -140 -71 -180c-33 -24 -72 -29 -105 -29c-29 0 -47 3 -76 7l9 85c31 -8 42 -9 58 -9c74 0 81 44 86 78c3 18 3 30 5 48l48 416h-80l7 65
h81l6 51c0 1 5 57 19 86c42 90 143 85 152 85c29 0 47 -3 76 -7z" />
    <glyph glyph-name="section" unicode="&#xa7;" horiz-adv-x="792" 
d="M734 255c0 -81 -44 -133 -109 -173c18 -26 28 -56 28 -87c0 -24 -6 -50 -18 -71c-48 -83 -153 -101 -241 -101c-125 0 -226 36 -336 92l72 81c77 -51 176 -78 268 -78c47 0 142 9 142 74c0 44 -41 60 -77 70c-21 6 -42 12 -63 17c-48 11 -96 19 -143 32
c-18 5 -36 9 -54 16c-80 30 -147 85 -147 178c0 78 48 140 113 179c-24 25 -37 54 -37 89c0 125 162 153 257 153c108 0 219 -28 309 -90l-59 -77c-77 53 -167 76 -260 76c-42 0 -137 -6 -137 -65c0 -15 6 -23 16 -33c27 -27 142 -50 181 -59c30 -6 59 -13 89 -21
c104 -27 206 -79 206 -202zM635 248c0 58 -45 86 -94 102c-99 33 -207 42 -301 87c-43 -27 -82 -63 -82 -118c0 -87 100 -106 167 -122c79 -19 161 -28 235 -63c42 28 75 60 75 114z" />
    <glyph glyph-name="currency" unicode="&#xa4;" horiz-adv-x="705" 
d="M657 566l-79 -75c38 -56 51 -96 51 -151c0 -57 -15 -102 -52 -153l79 -77l-67 -63l-79 77c-64 -38 -99 -49 -159 -49s-98 12 -155 49l-81 -76l-66 63l80 76c-37 52 -51 94 -51 153s14 101 52 151l-80 75l67 64l79 -75c51 34 98 49 158 49c59 0 110 -16 157 -49l80 76z
M535 338c0 106 -77 184 -181 184c-103 0 -183 -79 -183 -182c0 -105 80 -183 185 -183c101 0 179 79 179 181z" />
    <glyph glyph-name="quotesingle" unicode="'" horiz-adv-x="161" 
d="M133 743l-33 -290h-38l-34 290h105z" />
    <glyph glyph-name="quotedblleft" unicode="&#x201c;" horiz-adv-x="437" 
d="M365 469h-110v128c0 53 12 91 67 108c14 4 29 3 43 7v-55c-35 -4 -45 -14 -45 -49v-31h45v-108zM179 469h-110v128c0 53 12 91 67 108c14 4 29 3 43 7v-55c-35 -4 -45 -14 -45 -49v-31h45v-108z" />
    <glyph glyph-name="guillemotleft" unicode="&#xab;" horiz-adv-x="500" 
d="M448 54l-203 159v86l203 158v-63l-128 -139l128 -137v-64zM247 54l-203 159v85l203 159v-65l-128 -137l128 -137v-64z" />
    <glyph glyph-name="guilsinglleft" unicode="&#x2039;" horiz-adv-x="292" 
d="M243 54l-202 159v86l202 158v-63l-128 -139l128 -137v-64z" />
    <glyph glyph-name="guilsinglright" unicode="&#x203a;" horiz-adv-x="292" 
d="M250 212l-203 -159v64l129 138l-129 137v65l203 -159v-86z" />
    <glyph glyph-name="endash" unicode="&#x2013;" horiz-adv-x="626" 
d="M591 259h-556v82h556v-82z" />
    <glyph glyph-name="dagger" unicode="&#x2020;" horiz-adv-x="604" 
d="M564 401h-215v-525h-95v525h-217v79h217v226h95v-225h215v-80z" />
    <glyph glyph-name="daggerdbl" unicode="&#x2021;" horiz-adv-x="604" 
d="M564 82h-215v-207h-94v207h-217v72h217v290h-217v73h217v189h94v-189h215v-73h-215v-290h215v-72z" />
    <glyph glyph-name="periodcentered" unicode="&#xb7;" horiz-adv-x="250" 
d="M179 188h-110v109h110v-109z" />
    <glyph glyph-name="paragraph" unicode="&#xb6;" horiz-adv-x="636" 
d="M542 641h-34v-807h-69v807h-149v-807h-70v487c-38 9 -51 14 -74 29c-50 31 -78 88 -78 156c0 58 20 109 56 145c40 39 89 55 171 55h247v-65z" />
    <glyph glyph-name="bullet" unicode="&#x2022;" horiz-adv-x="333" 
d="M282 238h-232v230h232v-230z" />
    <glyph glyph-name="quotesinglbase" unicode="&#x201a;" horiz-adv-x="250" 
d="M180 -19c0 -75 -29 -114 -109 -115v55c35 4 45 14 45 49v30h-45v108h109v-127z" />
    <glyph glyph-name="quotedblbase" unicode="&#x201e;" horiz-adv-x="437" 
d="M365 -19c0 -53 -11 -92 -67 -109c-14 -4 -29 -4 -43 -7v55c35 4 46 14 46 49v31h-46v108h110v-127zM180 -19c0 -75 -29 -114 -109 -115v55c35 4 45 14 45 49v30h-45v108h109v-127z" />
    <glyph glyph-name="quotedblright" unicode="&#x201d;" horiz-adv-x="437" 
d="M364 578c0 -75 -31 -114 -110 -115v55c35 4 45 14 45 49v30h-45v109h110v-128zM177 578c0 -75 -29 -114 -109 -115v55c35 4 45 14 45 49v30h-45v109h109v-128z" />
    <glyph glyph-name="guillemotright" unicode="&#xbb;" horiz-adv-x="500" 
d="M454 212l-202 -159v64l128 138l-128 137v65l202 -159v-86zM253 213l-202 -161v64l129 139l-129 137v64l202 -160v-83z" />
    <glyph glyph-name="ellipsis" unicode="&#x2026;" horiz-adv-x="1000" 
d="M883 0h-99v97h99v-97zM550 0h-98v97h98v-97zM215 0h-99v97h99v-97z" />
    <glyph glyph-name="perthousand" unicode="&#x2030;" horiz-adv-x="1500" 
d="M1470 221c0 -112 -67 -225 -200 -225c-134 0 -199 103 -202 216c0 11 -5 124 83 193c39 31 79 40 118 41c61 1 105 -25 129 -47c12 -10 22 -21 30 -33c32 -46 42 -99 42 -145zM1012 221c0 -112 -67 -225 -201 -225c-133 0 -198 103 -201 216c0 11 -5 124 83 193
c39 31 79 40 118 41c61 1 104 -25 129 -47c11 -10 21 -21 30 -33c32 -46 42 -99 42 -145zM760 670l-432 -682l-49 30l432 683zM428 469c0 -112 -67 -226 -200 -226c-134 0 -199 103 -202 217c0 11 -5 123 83 192c39 31 79 41 118 41c61 1 104 -25 129 -47
c11 -9 21 -21 30 -33c32 -46 42 -99 42 -144zM1400 219c0 116 -65 168 -131 168c-11 0 -22 -1 -32 -4c-53 -15 -97 -71 -99 -162c-1 -76 31 -166 131 -166c99 0 131 92 131 164zM941 219c0 116 -65 168 -130 168c-11 0 -22 -1 -32 -4c-53 -15 -97 -71 -99 -162
c-2 -76 31 -166 131 -166c98 0 130 92 130 164zM358 467c0 116 -65 168 -131 168c-11 0 -22 -2 -32 -5c-53 -14 -96 -71 -98 -162c-1 -75 30 -166 130 -166c99 0 131 93 131 165z" />
    <glyph glyph-name="questiondown" unicode="&#xbf;" horiz-adv-x="667" 
d="M401 606h-101v100h101v-100zM599 202c-6 -24 -18 -78 -63 -128c-23 -26 -59 -59 -136 -79c-33 -8 -64 -12 -97 -12c-34 0 -158 4 -232 98c-40 50 -44 95 -44 122c0 41 12 65 21 80c33 57 95 81 152 105c49 20 78 34 94 52c20 24 18 58 18 85h74v-38c0 -27 -1 -60 -14 -85
c-17 -31 -48 -45 -78 -58c-29 -12 -78 -32 -106 -49c-37 -23 -58 -55 -58 -100c0 -11 2 -38 19 -64c33 -50 101 -72 158 -72c70 0 138 29 176 90c17 28 25 59 28 70z" />
    <glyph glyph-name="grave" unicode="`" horiz-adv-x="375" 
d="M284 551h-65l-128 137h125z" />
    <glyph glyph-name="acute" unicode="&#xb4;" horiz-adv-x="375" 
d="M285 688l-129 -137h-66l70 137h125z" />
    <glyph glyph-name="circumflex" unicode="&#x2c6;" horiz-adv-x="375" 
d="M348 552h-81l-82 76l-76 -77h-82l105 138h108z" />
    <glyph glyph-name="tilde" unicode="&#x2dc;" horiz-adv-x="375" 
d="M378 610c-60 -43 -86 -55 -116 -55c-52 0 -104 40 -156 40c-28 0 -45 -13 -73 -35l-36 45c41 32 78 61 121 61c20 0 40 -4 80 -21c25 -10 46 -20 71 -20c28 0 46 12 73 30z" />
    <glyph glyph-name="macron" unicode="&#xaf;" horiz-adv-x="375" 
d="M368 569h-361v76h361v-76z" />
    <glyph glyph-name="dieresis" unicode="&#xa8;" horiz-adv-x="375" 
d="M368 569h-98v103h98v-103zM104 569h-97v103h97v-103z" />
    <glyph glyph-name="cedilla" unicode="&#xb8;" horiz-adv-x="375" 
d="M297 -130c-1 -43 -38 -89 -128 -89c-35 0 -87 9 -91 10l18 47c8 -1 33 -8 58 -8c3 0 25 0 39 7c11 6 19 17 19 30c0 5 -1 13 -10 20c-19 16 -56 14 -79 12l43 110h57l-25 -63c11 -1 59 0 86 -35c12 -17 13 -33 13 -41z" />
    <glyph glyph-name="emdash" unicode="&#x2014;" horiz-adv-x="932" 
d="M897 259h-862v82h862v-82z" />
    <glyph glyph-name="AE" unicode="&#xc6;" horiz-adv-x="1125" 
d="M1094 0h-570v170h-294l-113 -170h-117l486 706h602v-86h-464v-212h436v-82h-436v-238h470v-88zM525 252v361l-241 -361h241z" />
    <glyph glyph-name="ordfeminine" unicode="&#xaa;" horiz-adv-x="479" 
d="M478 356c-9 -1 -31 -5 -57 -5c-54 0 -63 28 -71 55c-10 -9 -14 -13 -20 -17c-46 -35 -102 -44 -147 -44c-4 0 -157 -3 -157 121c0 116 137 107 143 107h179v13c0 17 -2 30 -6 37c-16 28 -57 35 -110 35c-28 0 -95 1 -113 -45l-72 7c6 17 10 27 15 34c30 45 82 58 163 58
c80 0 144 -13 173 -49c16 -19 18 -42 18 -62v-158c0 -7 -3 -39 31 -39c10 0 21 1 31 3v-51zM349 522c-6 -1 -12 -2 -18 -2c-15 -2 -30 -2 -45 -2h-71c-50 0 -86 1 -106 -24c-10 -12 -10 -25 -10 -28c0 -40 32 -65 94 -65c30 0 89 10 120 35c14 12 19 21 23 28
c11 19 13 39 13 58z" />
    <glyph glyph-name="Oslash" unicode="&#xd8;" horiz-adv-x="979" 
d="M944 656l-98 -77c7 -11 14 -21 21 -31c20 -32 59 -94 58 -193c0 -52 -10 -167 -111 -262c-117 -109 -270 -110 -320 -110c-33 0 -134 1 -229 45c-18 8 -34 17 -68 39l-101 -80l-45 60l88 69c-30 37 -87 112 -87 236c0 49 9 164 108 258c116 110 276 114 324 114
c35 0 145 -3 244 -55c20 -10 30 -16 62 -40l108 86zM827 355c0 21 -1 80 -32 135c-8 15 -19 28 -22 32l-503 -397c19 -11 28 -18 63 -31c52 -20 99 -27 155 -27c110 0 183 33 220 56c83 53 119 136 119 232zM719 574c-13 9 -25 17 -39 24c-32 17 -99 42 -193 42
c-164 0 -255 -71 -293 -129c-17 -25 -44 -79 -44 -158c0 -21 3 -87 37 -145c8 -13 15 -23 25 -35z" />
    <glyph glyph-name="OE" unicode="&#x152;" horiz-adv-x="1146" 
d="M1113 0h-526c-50 -5 -100 -10 -151 -10c-97 0 -180 18 -257 77c-41 31 -64 63 -75 80s-28 47 -41 95c-5 17 -15 61 -15 112s9 185 127 278c48 38 131 84 272 84c44 0 87 -4 130 -10h532v-88h-428v-214h399v-82h-399v-235h432v-87zM585 87v533c-49 11 -82 17 -133 17
c-39 0 -181 -3 -258 -123c-17 -27 -44 -80 -44 -163c0 -44 7 -171 128 -239c55 -31 110 -42 171 -42c52 0 86 7 136 17z" />
    <glyph glyph-name="ordmasculine" unicode="&#xba;" horiz-adv-x="500" 
d="M468 530c0 -31 -8 -124 -120 -166c-42 -15 -83 -16 -96 -16c-156 0 -223 91 -223 178c0 75 50 186 211 186h11c163 0 217 -104 217 -182zM397 532c0 54 -40 121 -145 121c-26 0 -41 -2 -66 -10c-58 -19 -85 -66 -85 -114c0 -55 42 -118 146 -120c112 -2 150 67 150 123z
" />
    <glyph glyph-name="ae" unicode="&#xe6;" horiz-adv-x="1146" 
d="M1100 234h-496c3 -26 5 -44 19 -70c42 -77 133 -101 191 -101c9 0 102 -1 159 66c13 15 22 33 24 36l90 -23c-10 -20 -19 -38 -36 -58c-65 -77 -168 -98 -237 -98c-67 0 -155 16 -220 72c-10 8 -18 16 -34 34c-25 -26 -33 -34 -49 -45c-42 -31 -119 -63 -223 -64
c-102 -1 -169 24 -209 69c-38 42 -39 90 -39 103c0 39 14 68 25 83c42 58 104 68 207 68h239c0 86 -56 121 -178 123c-86 1 -145 -16 -171 -67l-95 11c9 24 13 33 23 46c42 58 125 81 239 81c100 0 169 -18 211 -48c17 -13 26 -24 33 -32c10 9 17 16 27 24
c39 30 102 58 195 58c158 0 292 -82 305 -268zM988 305c-17 62 -71 124 -185 124c-83 0 -138 -31 -170 -73c-11 -15 -20 -36 -26 -51h381zM510 234h-154c-76 0 -142 1 -170 -11c-22 -9 -30 -18 -38 -30c-12 -17 -12 -35 -12 -40c0 -70 63 -95 159 -95c53 0 156 11 197 87
c14 26 16 63 18 89z" />
    <glyph glyph-name="oslash" unicode="&#xf8;" 
d="M682 240c0 -20 -3 -63 -27 -110c-56 -107 -183 -144 -295 -144c-20 0 -108 2 -175 36c-19 9 -42 26 -45 28l-71 -52l-41 57l60 44c-5 8 -11 16 -16 25c-26 47 -29 99 -29 117c0 33 5 98 62 162c65 72 163 99 259 99c23 0 98 -2 166 -33c14 -6 26 -13 39 -21l71 50l38 -54
l-57 -43c8 -10 16 -19 23 -30c13 -21 38 -65 38 -131zM592 245c0 46 -14 71 -37 108l-341 -250c5 -3 14 -10 29 -17c18 -9 66 -25 125 -25c21 0 101 3 159 49c6 5 20 17 32 34c31 41 33 80 33 101zM499 396c-26 12 -68 31 -136 31c-21 0 -93 -1 -150 -40
c-17 -11 -34 -27 -46 -43c-12 -15 -34 -51 -34 -102c0 -33 10 -61 14 -71c3 -7 8 -14 13 -20z" />
    <glyph glyph-name="oe" unicode="&#x153;" horiz-adv-x="1146" 
d="M1099 233h-480c1 -20 5 -59 36 -98c40 -50 102 -71 164 -71c24 0 85 2 137 48c9 7 20 19 26 28c6 8 11 16 15 25l90 -24c-10 -21 -18 -33 -23 -41c-14 -20 -50 -63 -112 -88c-21 -9 -73 -25 -137 -25c-13 0 -36 0 -68 6c-53 9 -93 25 -136 58c-13 9 -25 20 -36 31
c-29 -29 -76 -74 -173 -90c-13 -2 -38 -6 -71 -6c-156 0 -289 92 -289 260c0 30 3 92 53 153c59 71 150 103 240 103c28 0 118 -3 192 -55c22 -16 38 -33 45 -39c7 7 18 19 37 34c32 24 94 59 194 59c92 0 155 -32 184 -53c22 -15 69 -54 94 -121c13 -34 16 -59 18 -94z
M988 304c0 0 -5 17 -11 29c-32 67 -101 96 -171 96c-57 0 -116 -20 -151 -64c-20 -25 -27 -51 -30 -61h363zM533 241c0 87 -51 131 -77 149c-48 32 -106 33 -124 32c-12 0 -41 -2 -72 -13c-106 -37 -123 -128 -123 -169c0 -10 2 -35 12 -62c41 -108 160 -112 189 -112
c24 0 106 3 159 68c34 42 36 88 36 107z" />
    <glyph glyph-name="germandbls" unicode="&#xdf;" 
d="M681 231c0 -148 -66 -203 -133 -226c-43 -15 -86 -15 -101 -15c-33 0 -50 3 -66 5c-16 3 -101 12 -131 79c-13 28 -12 58 -13 87h94c0 -8 0 -16 1 -23c4 -34 20 -49 32 -57c28 -18 65 -18 74 -18c10 0 56 0 90 24c58 39 55 119 55 135c0 70 -15 106 -41 129
c-41 36 -109 37 -220 32v74c86 -1 137 0 172 19c16 9 42 29 42 74c0 11 -1 38 -26 59c-33 29 -112 36 -154 36c-74 0 -112 -13 -141 -34c-18 -12 -26 -24 -30 -32c-12 -20 -14 -44 -14 -91v-488h-96v492c0 9 -3 70 14 111c44 103 181 117 274 117c13 0 110 1 177 -26
c12 -5 20 -9 32 -17c21 -14 66 -49 66 -118c0 -23 -4 -81 -63 -110c-12 -6 -24 -9 -36 -13c33 -8 46 -14 61 -22c47 -26 81 -74 81 -183z" />
    <glyph glyph-name="Ydieresis" unicode="&#x178;" horiz-adv-x="812" 
d="M579 773h-97v103h97v-103zM316 774h-98v103h98v-103zM811 706l-358 -433v-273h-99v275l-352 431h129l273 -346l279 346h128z" />
    <glyph glyph-name="trademark" unicode="&#x2122;" horiz-adv-x="687" 
d="M624 374h-57l5 268l-85 -268h-50l-85 272l7 -272h-57v332h79l83 -264l79 264h81v-332zM274 657h-104v-283h-59v283h-107v49h270v-49z" />
    <glyph glyph-name="scaron" unicode="&#x161;" horiz-adv-x="667" 
d="M491 692l-105 -138h-108l-107 137h80l81 -76l78 77h81zM621 148c0 -149 -188 -166 -269 -166c-158 0 -269 43 -334 102l82 55c11 -9 24 -20 48 -33c80 -44 181 -44 198 -44c85 0 174 19 174 78c0 60 -88 63 -171 69c-130 10 -231 12 -272 87c-13 25 -13 52 -13 59
c4 145 199 152 270 152c113 0 181 -25 231 -53c29 -16 40 -24 54 -38l-83 -46c-44 30 -111 59 -214 57c-31 0 -102 -3 -133 -30c-8 -7 -20 -18 -20 -37c0 -22 18 -34 27 -40c32 -20 257 -32 289 -37c30 -5 136 -23 136 -135z" />
    <glyph glyph-name="Scaron" unicode="&#x160;" horiz-adv-x="812" 
d="M568 876l-109 -124h-106l-109 126h82l80 -71l82 69h80zM763 209c-1 -59 -22 -98 -43 -123c-55 -68 -156 -103 -303 -103c-97 0 -254 16 -351 104c-25 23 -42 48 -47 56l92 38c84 -98 235 -113 322 -112c135 2 229 50 231 140c0 17 -2 59 -54 87c-55 30 -168 30 -310 45
c-44 5 -69 8 -89 13c-89 21 -141 82 -140 166c2 137 130 204 329 204c157 0 266 -43 328 -109c10 -10 19 -23 27 -33l-92 -37c-19 19 -27 25 -36 32c-45 35 -117 64 -223 64c-99 0 -177 -19 -212 -61c-16 -20 -22 -40 -21 -61c1 -22 10 -37 17 -46c28 -36 77 -39 109 -43
c205 -27 356 -6 433 -111c26 -36 34 -74 33 -110z" />
    <glyph glyph-name="ydieresis" unicode="&#xff;" horiz-adv-x="604" 
d="M478 569h-97v103h97v-103zM215 569h-97v103h97v-103zM603 489l-276 -536c-33 -65 -70 -124 -186 -123c-46 1 -100 10 -111 12v86c50 -11 76 -15 100 -15c59 0 85 23 118 84l-248 492h108l191 -394l198 394h106z" />
    <glyph glyph-name="thorn" unicode="&#xfe;" 
d="M681 242c-2 -97 -54 -193 -169 -234c-37 -13 -74 -17 -111 -17c-58 0 -153 13 -211 59c-7 6 -17 17 -18 18v-263h-95v901h95v-270c10 8 20 16 41 27c69 37 155 37 171 37c142 0 302 -80 297 -258zM578 250c0 121 -105 161 -145 170c-26 5 -52 5 -59 5
c-21 0 -41 -2 -61 -6c-51 -11 -144 -49 -146 -173c-3 -174 192 -179 212 -179c107 1 199 62 199 183z" />
    <glyph glyph-name="yacute" unicode="&#xfd;" horiz-adv-x="604" 
d="M452 688l-129 -137h-66l70 137h125zM603 489l-276 -536c-33 -65 -70 -124 -186 -123c-46 1 -100 10 -111 12v86c50 -11 76 -15 100 -15c59 0 85 23 118 84l-248 492h108l191 -394l198 394h106z" />
    <glyph glyph-name="udieresis" unicode="&#xfc;" 
d="M535 568h-98v103h98v-103zM271 567h-97v103h97v-103zM646 0h-93l-1 61c-9 -8 -24 -21 -50 -37c-64 -39 -142 -41 -164 -41c-16 0 -50 1 -92 11c-20 4 -114 25 -151 103c-20 41 -20 91 -20 135v256h94v-246c0 -49 4 -74 13 -96c35 -81 157 -79 167 -79
c103 0 166 49 187 85c15 26 15 49 15 78v258h95v-488z" />
    <glyph glyph-name="ucircumflex" unicode="&#xfb;" 
d="M527 552h-82l-81 76l-77 -77h-82l105 138h108zM646 0h-93l-1 61c-9 -8 -24 -21 -50 -37c-64 -39 -142 -41 -164 -41c-16 0 -50 1 -92 11c-20 4 -114 25 -151 103c-20 41 -20 91 -20 135v256h94v-246c0 -49 4 -74 13 -96c35 -81 157 -79 167 -79c103 0 166 49 187 85
c15 26 15 49 15 78v258h95v-488z" />
    <glyph glyph-name="uacute" unicode="&#xfa;" 
d="M515 688l-129 -137h-66l69 137h126zM646 0h-93l-1 61c-9 -8 -24 -21 -50 -37c-64 -39 -142 -41 -164 -41c-16 0 -50 1 -92 11c-20 4 -114 25 -151 103c-20 41 -20 91 -20 135v256h94v-246c0 -49 4 -74 13 -96c35 -81 157 -79 167 -79c103 0 166 49 187 85
c15 26 15 49 15 78v258h95v-488z" />
    <glyph glyph-name="ugrave" unicode="&#xf9;" 
d="M431 551h-64l-128 137h126zM646 0h-93l-1 61c-9 -8 -24 -21 -50 -37c-64 -39 -142 -41 -164 -41c-16 0 -50 1 -92 11c-20 4 -114 25 -151 103c-20 41 -20 91 -20 135v256h94v-246c0 -49 4 -74 13 -96c35 -81 157 -79 167 -79c103 0 166 49 187 85c15 26 15 49 15 78v258
h95v-488z" />
    <glyph glyph-name="divide" unicode="&#xf7;" horiz-adv-x="772" 
d="M440 404h-109v107h109v-107zM701 253h-630v87h630v-87zM441 78h-109v107h109v-107z" />
    <glyph glyph-name="odieresis" unicode="&#xf6;" 
d="M538 567h-97v103h97v-103zM275 566h-97v103h97v-103zM682 242c0 -20 -2 -74 -34 -126c-35 -57 -123 -131 -283 -131c-18 0 -76 1 -131 17c-44 13 -189 69 -189 232c0 25 3 79 38 135c80 126 242 131 279 131c23 0 107 -2 179 -36c11 -5 28 -13 50 -31
c14 -11 30 -27 41 -40c19 -23 50 -73 50 -151zM587 244c0 14 -2 50 -23 85c-57 94 -184 93 -206 93c-57 -1 -114 -15 -158 -53c-38 -32 -59 -78 -59 -129c0 -17 2 -55 29 -92c28 -38 89 -84 200 -84c48 0 95 11 137 38c24 15 80 58 80 142z" />
    <glyph glyph-name="otilde" unicode="&#xf5;" 
d="M555 610c-59 -43 -85 -55 -116 -55c-51 0 -104 40 -155 40c-29 0 -46 -13 -73 -35l-35 45c41 32 77 61 120 61c20 0 40 -4 81 -21c24 -10 46 -20 70 -20c29 0 46 12 74 30zM682 242c0 -20 -2 -74 -34 -126c-35 -57 -123 -131 -283 -131c-18 0 -76 1 -131 17
c-44 13 -189 69 -189 232c0 25 3 79 38 135c80 126 242 131 279 131c23 0 107 -2 179 -36c11 -5 28 -13 50 -31c14 -11 30 -27 41 -40c19 -23 50 -73 50 -151zM587 244c0 14 -2 50 -23 85c-57 94 -184 93 -206 93c-57 -1 -114 -15 -158 -53c-38 -32 -59 -78 -59 -129
c0 -17 2 -55 29 -92c28 -38 89 -84 200 -84c48 0 95 11 137 38c24 15 80 58 80 142z" />
    <glyph glyph-name="ocircumflex" unicode="&#xf4;" 
d="M527 552h-82l-81 76l-77 -77h-82l105 138h108zM682 242c0 -20 -2 -74 -34 -126c-35 -57 -123 -131 -283 -131c-18 0 -76 1 -131 17c-44 13 -189 69 -189 232c0 25 3 79 38 135c80 126 242 131 279 131c23 0 107 -2 179 -36c11 -5 28 -13 50 -31c14 -11 30 -27 41 -40
c19 -23 50 -73 50 -151zM587 244c0 14 -2 50 -23 85c-57 94 -184 93 -206 93c-57 -1 -114 -15 -158 -53c-38 -32 -59 -78 -59 -129c0 -17 2 -55 29 -92c28 -38 89 -84 200 -84c48 0 95 11 137 38c24 15 80 58 80 142z" />
    <glyph glyph-name="oacute" unicode="&#xf3;" 
d="M515 688l-129 -137h-66l69 137h126zM682 242c0 -20 -2 -74 -34 -126c-35 -57 -123 -131 -283 -131c-18 0 -76 1 -131 17c-44 13 -189 69 -189 232c0 25 3 79 38 135c80 126 242 131 279 131c23 0 107 -2 179 -36c11 -5 28 -13 50 -31c14 -11 30 -27 41 -40
c19 -23 50 -73 50 -151zM587 244c0 14 -2 50 -23 85c-57 94 -184 93 -206 93c-57 -1 -114 -15 -158 -53c-38 -32 -59 -78 -59 -129c0 -17 2 -55 29 -92c28 -38 89 -84 200 -84c48 0 95 11 137 38c24 15 80 58 80 142z" />
    <glyph glyph-name="ograve" unicode="&#xf2;" 
d="M431 551h-64l-128 137h126zM682 242c0 -20 -2 -74 -34 -126c-35 -57 -123 -131 -283 -131c-18 0 -76 1 -131 17c-44 13 -189 69 -189 232c0 25 3 79 38 135c80 126 242 131 279 131c23 0 107 -2 179 -36c11 -5 28 -13 50 -31c14 -11 30 -27 41 -40c19 -23 50 -73 50 -151
zM587 244c0 14 -2 50 -23 85c-57 94 -184 93 -206 93c-57 -1 -114 -15 -158 -53c-38 -32 -59 -78 -59 -129c0 -17 2 -55 29 -92c28 -38 89 -84 200 -84c48 0 95 11 137 38c24 15 80 58 80 142z" />
    <glyph glyph-name="ntilde" unicode="&#xf1;" 
d="M555 610c-59 -43 -85 -55 -116 -55c-51 0 -104 40 -155 40c-29 0 -46 -13 -73 -35l-35 45c41 32 77 61 120 61c20 0 40 -4 81 -21c24 -10 46 -20 70 -20c29 0 46 12 74 30zM649 0h-94v258c0 42 -4 60 -13 80c-18 42 -68 83 -168 83c-48 0 -75 -9 -95 -16
c-15 -6 -71 -26 -94 -87c-11 -28 -12 -56 -12 -86v-232h-95v488h95v-59c17 14 35 31 74 47c29 12 76 26 144 26c121 0 210 -49 242 -122c16 -38 16 -76 16 -116v-264z" />
    <glyph glyph-name="eth" unicode="&#xf0;" 
d="M683 269c0 -92 -30 -146 -65 -185c-39 -44 -73 -60 -90 -68c-30 -14 -87 -31 -163 -31c-61 0 -145 11 -205 49c-18 11 -35 25 -51 42c-33 33 -63 79 -64 156c-1 64 20 107 38 135c44 70 139 133 279 133c89 0 152 -29 187 -59c-21 46 -64 94 -73 104
c-12 13 -23 22 -48 42l-197 -49l-23 48l165 42c-36 24 -64 39 -101 63l103 24c25 -14 42 -24 65 -40c12 -8 19 -15 31 -23l146 37l27 -48l-122 -30c21 -21 36 -36 55 -58c73 -89 107 -191 106 -284zM587 243c0 43 -15 73 -26 90c-49 75 -142 90 -203 89c-25 0 -50 -3 -74 -9
c-87 -23 -141 -88 -143 -168c-1 -42 13 -72 24 -89c34 -53 102 -92 204 -92c95 0 218 53 218 179z" />
    <glyph glyph-name="idieresis" unicode="&#xef;" horiz-adv-x="250" 
d="M301 569h-97v103h97v-103zM38 569h-98v103h98v-103zM172 0h-95v488h95v-488z" />
    <glyph glyph-name="icircumflex" unicode="&#xee;" horiz-adv-x="250" 
d="M287 552h-81l-82 76l-76 -77h-82l105 138h108zM172 0h-95v488h95v-488z" />
    <glyph glyph-name="iacute" unicode="&#xed;" horiz-adv-x="250" 
d="M275 688l-129 -137h-66l69 137h126zM172 0h-95v488h95v-488z" />
    <glyph glyph-name="igrave" unicode="&#xec;" horiz-adv-x="250" 
d="M192 551h-65l-127 137h125zM172 0h-95v488h95v-488z" />
    <glyph glyph-name="edieresis" unicode="&#xeb;" horiz-adv-x="688" 
d="M519 569h-97v103h97v-103zM256 569h-97v103h97v-103zM643 233h-501c7 -47 16 -79 51 -112c24 -23 78 -60 163 -60c58 0 116 18 156 61c14 15 20 27 30 45l91 -25c-7 -15 -15 -30 -25 -44c-31 -45 -81 -71 -96 -78c-27 -13 -88 -35 -169 -35c-158 0 -298 88 -299 263
c0 15 2 51 17 91c49 129 179 154 219 160c11 2 33 5 61 5c42 0 164 -6 245 -109c15 -19 47 -61 55 -125c2 -13 2 -25 2 -37zM536 304c-21 58 -48 81 -72 97c-8 5 -26 16 -52 24c-13 4 -33 8 -65 8c-74 0 -142 -27 -183 -92c-8 -12 -10 -15 -19 -37h391z" />
    <glyph glyph-name="ecircumflex" unicode="&#xea;" horiz-adv-x="688" 
d="M506 552h-82l-81 76l-77 -77h-82l106 138h107zM643 233h-501c7 -47 16 -79 51 -112c24 -23 78 -60 163 -60c58 0 116 18 156 61c14 15 20 27 30 45l91 -25c-7 -15 -15 -30 -25 -44c-31 -45 -81 -71 -96 -78c-27 -13 -88 -35 -169 -35c-158 0 -298 88 -299 263
c0 15 2 51 17 91c49 129 179 154 219 160c11 2 33 5 61 5c42 0 164 -6 245 -109c15 -19 47 -61 55 -125c2 -13 2 -25 2 -37zM536 304c-21 58 -48 81 -72 97c-8 5 -26 16 -52 24c-13 4 -33 8 -65 8c-74 0 -142 -27 -183 -92c-8 -12 -10 -15 -19 -37h391z" />
    <glyph glyph-name="eacute" unicode="&#xe9;" horiz-adv-x="688" 
d="M494 688l-129 -137h-66l69 137h126zM643 233h-501c7 -47 16 -79 51 -112c24 -23 78 -60 163 -60c58 0 116 18 156 61c14 15 20 27 30 45l91 -25c-7 -15 -15 -30 -25 -44c-31 -45 -81 -71 -96 -78c-27 -13 -88 -35 -169 -35c-158 0 -298 88 -299 263c0 15 2 51 17 91
c49 129 179 154 219 160c11 2 33 5 61 5c42 0 164 -6 245 -109c15 -19 47 -61 55 -125c2 -13 2 -25 2 -37zM536 304c-21 58 -48 81 -72 97c-8 5 -26 16 -52 24c-13 4 -33 8 -65 8c-74 0 -142 -27 -183 -92c-8 -12 -10 -15 -19 -37h391z" />
    <glyph glyph-name="egrave" unicode="&#xe8;" horiz-adv-x="688" 
d="M410 551h-64l-128 137h126zM643 233h-501c7 -47 16 -79 51 -112c24 -23 78 -60 163 -60c58 0 116 18 156 61c14 15 20 27 30 45l91 -25c-7 -15 -15 -30 -25 -44c-31 -45 -81 -71 -96 -78c-27 -13 -88 -35 -169 -35c-158 0 -298 88 -299 263c0 15 2 51 17 91
c49 129 179 154 219 160c11 2 33 5 61 5c42 0 164 -6 245 -109c15 -19 47 -61 55 -125c2 -13 2 -25 2 -37zM536 304c-21 58 -48 81 -72 97c-8 5 -26 16 -52 24c-13 4 -33 8 -65 8c-74 0 -142 -27 -183 -92c-8 -12 -10 -15 -19 -37h391z" />
    <glyph glyph-name="ccedilla" unicode="&#xe7;" horiz-adv-x="688" 
d="M662 130c-10 -17 -17 -30 -32 -47c-67 -77 -170 -91 -182 -93c-22 -4 -39 -4 -61 -6l-16 -38c27 -2 62 -4 86 -35c14 -18 13 -37 13 -42c-2 -50 -46 -88 -127 -88c-38 0 -81 8 -92 10l19 47c31 -6 41 -8 58 -8c26 0 40 5 52 18c3 3 6 10 6 19c0 26 -36 33 -62 33
c-9 0 -18 0 -27 -1l33 85c-7 0 -165 0 -245 116c-20 30 -41 74 -42 142c0 50 9 99 48 148c72 93 197 112 277 112c83 0 194 -19 265 -111c13 -16 21 -32 24 -37l-91 -26c-55 103 -194 99 -197 99c-106 0 -227 -57 -225 -191c2 -129 128 -177 224 -177c8 0 101 0 162 48
c19 16 29 29 41 47z" />
    <glyph glyph-name="aring" unicode="&#xe5;" horiz-adv-x="688" 
d="M469 643c0 -13 -2 -25 -7 -36c-11 -24 -43 -59 -108 -59c-7 0 -28 1 -48 7c-40 13 -70 45 -70 90c0 20 7 35 11 41c21 38 67 52 107 52c16 0 28 -2 43 -6c42 -12 72 -44 72 -89zM681 0c-28 -2 -56 -5 -84 -5c-83 0 -90 47 -94 83c-3 -5 -11 -18 -23 -29
c-33 -32 -101 -67 -210 -67c-30 0 -60 4 -69 5c-49 8 -90 24 -124 62c-25 29 -38 63 -38 101c0 84 60 120 86 131c47 21 123 22 238 23l139 1c0 43 2 85 -43 109c-21 11 -61 20 -119 20c-46 0 -112 -4 -151 -35c-9 -7 -12 -11 -22 -29l-96 9c1 4 10 30 22 48
c9 13 27 35 63 50c32 13 93 26 179 26c14 0 83 -1 139 -15c13 -3 64 -14 93 -53c24 -32 24 -65 24 -102v-178c0 -31 0 -50 4 -63c5 -15 17 -29 51 -29c9 0 17 1 35 3v-66zM408 644c0 3 -1 12 -5 21c-6 11 -21 27 -52 26c-44 -1 -55 -32 -55 -48c0 -7 3 -16 7 -23
c6 -10 22 -24 51 -24c28 0 54 17 54 48zM503 231h-179c-74 0 -118 -2 -149 -17c-11 -5 -41 -24 -41 -63c0 -48 44 -96 141 -96c26 0 57 5 63 6c20 3 108 18 147 90c18 34 17 66 18 80z" />
    <glyph glyph-name="adieresis" unicode="&#xe4;" horiz-adv-x="688" 
d="M528 568h-97v103h97v-103zM265 567h-97v104h97v-104zM681 0c-28 -2 -56 -5 -84 -5c-83 0 -90 47 -94 83c-3 -5 -11 -18 -23 -29c-33 -32 -101 -67 -210 -67c-30 0 -60 4 -69 5c-49 8 -90 24 -124 62c-25 29 -38 63 -38 101c0 84 60 120 86 131c47 21 123 22 238 23l139 1
c0 43 2 85 -43 109c-21 11 -61 20 -119 20c-46 0 -112 -4 -151 -35c-9 -7 -12 -11 -22 -29l-96 9c1 4 10 30 22 48c9 13 27 35 63 50c32 13 93 26 179 26c14 0 83 -1 139 -15c13 -3 64 -14 93 -53c24 -32 24 -65 24 -102v-178c0 -31 0 -50 4 -63c5 -15 17 -29 51 -29
c9 0 17 1 35 3v-66zM503 231h-179c-74 0 -118 -2 -149 -17c-11 -5 -41 -24 -41 -63c0 -48 44 -96 141 -96c26 0 57 5 63 6c20 3 108 18 147 90c18 34 17 66 18 80z" />
    <glyph glyph-name="atilde" unicode="&#xe3;" horiz-adv-x="688" 
d="M534 610c-59 -43 -85 -55 -116 -55c-51 0 -104 40 -155 40c-29 0 -46 -13 -73 -35l-35 45c41 32 78 61 120 61c20 0 40 -4 81 -21c24 -10 46 -20 70 -20c29 0 47 12 74 30zM681 0c-28 -2 -56 -5 -84 -5c-83 0 -90 47 -94 83c-3 -5 -11 -18 -23 -29
c-33 -32 -101 -67 -210 -67c-30 0 -60 4 -69 5c-49 8 -90 24 -124 62c-25 29 -38 63 -38 101c0 84 60 120 86 131c47 21 123 22 238 23l139 1c0 43 2 85 -43 109c-21 11 -61 20 -119 20c-46 0 -112 -4 -151 -35c-9 -7 -12 -11 -22 -29l-96 9c1 4 10 30 22 48
c9 13 27 35 63 50c32 13 93 26 179 26c14 0 83 -1 139 -15c13 -3 64 -14 93 -53c24 -32 24 -65 24 -102v-178c0 -31 0 -50 4 -63c5 -15 17 -29 51 -29c9 0 17 1 35 3v-66zM503 231h-179c-74 0 -118 -2 -149 -17c-11 -5 -41 -24 -41 -63c0 -48 44 -96 141 -96c26 0 57 5 63 6
c20 3 108 18 147 90c18 34 17 66 18 80z" />
    <glyph glyph-name="acircumflex" unicode="&#xe2;" horiz-adv-x="688" 
d="M506 552h-82l-81 76l-77 -77h-82l106 138h107zM681 0c-28 -2 -56 -5 -84 -5c-83 0 -90 47 -94 83c-3 -5 -11 -18 -23 -29c-33 -32 -101 -67 -210 -67c-30 0 -60 4 -69 5c-49 8 -90 24 -124 62c-25 29 -38 63 -38 101c0 84 60 120 86 131c47 21 123 22 238 23l139 1
c0 43 2 85 -43 109c-21 11 -61 20 -119 20c-46 0 -112 -4 -151 -35c-9 -7 -12 -11 -22 -29l-96 9c1 4 10 30 22 48c9 13 27 35 63 50c32 13 93 26 179 26c14 0 83 -1 139 -15c13 -3 64 -14 93 -53c24 -32 24 -65 24 -102v-178c0 -31 0 -50 4 -63c5 -15 17 -29 51 -29
c9 0 17 1 35 3v-66zM503 231h-179c-74 0 -118 -2 -149 -17c-11 -5 -41 -24 -41 -63c0 -48 44 -96 141 -96c26 0 57 5 63 6c20 3 108 18 147 90c18 34 17 66 18 80z" />
    <glyph glyph-name="aacute" unicode="&#xe1;" horiz-adv-x="688" 
d="M494 688l-129 -137h-66l69 137h126zM681 0c-28 -2 -56 -5 -84 -5c-83 0 -90 47 -94 83c-3 -5 -11 -18 -23 -29c-33 -32 -101 -67 -210 -67c-30 0 -60 4 -69 5c-49 8 -90 24 -124 62c-25 29 -38 63 -38 101c0 84 60 120 86 131c47 21 123 22 238 23l139 1
c0 43 2 85 -43 109c-21 11 -61 20 -119 20c-46 0 -112 -4 -151 -35c-9 -7 -12 -11 -22 -29l-96 9c1 4 10 30 22 48c9 13 27 35 63 50c32 13 93 26 179 26c14 0 83 -1 139 -15c13 -3 64 -14 93 -53c24 -32 24 -65 24 -102v-178c0 -31 0 -50 4 -63c5 -15 17 -29 51 -29
c9 0 17 1 35 3v-66zM503 231h-179c-74 0 -118 -2 -149 -17c-11 -5 -41 -24 -41 -63c0 -48 44 -96 141 -96c26 0 57 5 63 6c20 3 108 18 147 90c18 34 17 66 18 80z" />
    <glyph glyph-name="agrave" unicode="&#xe0;" horiz-adv-x="688" 
d="M410 551h-64l-128 137h126zM681 0c-28 -2 -56 -5 -84 -5c-83 0 -90 47 -94 83c-3 -5 -11 -18 -23 -29c-33 -32 -101 -67 -210 -67c-30 0 -60 4 -69 5c-49 8 -90 24 -124 62c-25 29 -38 63 -38 101c0 84 60 120 86 131c47 21 123 22 238 23l139 1c0 43 2 85 -43 109
c-21 11 -61 20 -119 20c-46 0 -112 -4 -151 -35c-9 -7 -12 -11 -22 -29l-96 9c1 4 10 30 22 48c9 13 27 35 63 50c32 13 93 26 179 26c14 0 83 -1 139 -15c13 -3 64 -14 93 -53c24 -32 24 -65 24 -102v-178c0 -31 0 -50 4 -63c5 -15 17 -29 51 -29c9 0 17 1 35 3v-66z
M503 231h-179c-74 0 -118 -2 -149 -17c-11 -5 -41 -24 -41 -63c0 -48 44 -96 141 -96c26 0 57 5 63 6c20 3 108 18 147 90c18 34 17 66 18 80z" />
    <glyph glyph-name="Thorn" unicode="&#xde;" horiz-adv-x="812" 
d="M798 374c0 -16 1 -104 -74 -161c-62 -48 -137 -48 -200 -48h-339v-165h-102v706h101v-117h330c73 0 176 -2 243 -89c18 -23 41 -68 41 -126zM689 377c0 8 1 45 -24 77c-41 50 -102 50 -166 50h-315v-254h326c84 0 128 10 160 58c9 14 19 36 19 69z" />
    <glyph glyph-name="Yacute" unicode="&#xdd;" horiz-adv-x="812" 
d="M547 878l-126 -125h-65l64 125h127zM811 706l-358 -433v-273h-99v275l-352 431h129l273 -346l279 346h128z" />
    <glyph glyph-name="Udieresis" unicode="&#xdc;" horiz-adv-x="896" 
d="M621 774h-98v103h98v-103zM358 774h-98v103h98v-103zM808 281c0 -47 -1 -87 -20 -132c-55 -134 -212 -166 -340 -166c-34 0 -163 -1 -263 69c-42 29 -61 60 -71 78c-28 52 -30 104 -30 161v415h101v-419c0 -8 -1 -38 4 -66c10 -65 43 -88 68 -104c35 -22 93 -47 192 -47
c13 0 132 0 200 50c24 18 38 42 42 51c16 33 16 66 16 103v432h101v-425z" />
    <glyph glyph-name="Ucircumflex" unicode="&#xdb;" horiz-adv-x="896" 
d="M609 753h-82l-81 69l-82 -70h-79l107 125h107zM808 281c0 -47 -1 -87 -20 -132c-55 -134 -212 -166 -340 -166c-34 0 -163 -1 -263 69c-42 29 -61 60 -71 78c-28 52 -30 104 -30 161v415h101v-419c0 -8 -1 -38 4 -66c10 -65 43 -88 68 -104c35 -22 93 -47 192 -47
c13 0 132 0 200 50c24 18 38 42 42 51c16 33 16 66 16 103v432h101v-425z" />
    <glyph glyph-name="Uacute" unicode="&#xda;" horiz-adv-x="896" 
d="M588 878l-126 -125h-65l65 125h126zM808 281c0 -47 -1 -87 -20 -132c-55 -134 -212 -166 -340 -166c-34 0 -163 -1 -263 69c-42 29 -61 60 -71 78c-28 52 -30 104 -30 161v415h101v-419c0 -8 -1 -38 4 -66c10 -65 43 -88 68 -104c35 -22 93 -47 192 -47
c13 0 132 0 200 50c24 18 38 42 42 51c16 33 16 66 16 103v432h101v-425z" />
    <glyph glyph-name="Ugrave" unicode="&#xd9;" horiz-adv-x="896" 
d="M499 755h-66l-120 126h125zM808 281c0 -47 -1 -87 -20 -132c-55 -134 -212 -166 -340 -166c-34 0 -163 -1 -263 69c-42 29 -61 60 -71 78c-28 52 -30 104 -30 161v415h101v-419c0 -8 -1 -38 4 -66c10 -65 43 -88 68 -104c35 -22 93 -47 192 -47c13 0 132 0 200 50
c24 18 38 42 42 51c16 33 16 66 16 103v432h101v-425z" />
    <glyph glyph-name="multiply" unicode="&#xd7;" horiz-adv-x="772" 
d="M629 137l-72 -70l-175 165l-171 -166l-64 60l171 166l-177 166l72 70l177 -166l171 166l64 -60l-171 -166z" />
    <glyph glyph-name="Odieresis" unicode="&#xd6;" horiz-adv-x="958" 
d="M650 772h-97v103h97v-103zM387 772h-97v103h97v-103zM906 343c0 -41 -6 -151 -92 -240c-49 -51 -157 -122 -334 -122c-18 0 -59 1 -108 9c-48 7 -191 33 -273 165c-48 78 -51 158 -51 190c0 81 21 162 71 225c10 13 23 28 51 51c48 40 145 102 304 102
c32 0 128 -3 219 -45c58 -27 114 -71 151 -124c58 -84 62 -177 62 -211zM805 353c0 60 -16 102 -26 123c-76 163 -277 162 -317 161c-30 -1 -157 -8 -239 -90c-14 -14 -42 -45 -59 -95c-11 -32 -16 -69 -16 -103c0 -26 3 -102 51 -167c10 -13 25 -31 56 -53
c41 -29 110 -61 227 -61c19 0 66 0 119 14c99 26 171 92 195 192c3 14 9 43 9 79z" />
    <glyph glyph-name="Otilde" unicode="&#xd5;" horiz-adv-x="958" 
d="M671 815c-38 -28 -76 -55 -115 -55c-52 0 -104 40 -156 40c-28 0 -45 -12 -72 -34l-36 44c38 31 78 61 120 61c52 0 102 -40 153 -40c27 0 45 12 72 29zM906 343c0 -41 -6 -151 -92 -240c-49 -51 -157 -122 -334 -122c-18 0 -59 1 -108 9c-48 7 -191 33 -273 165
c-48 78 -51 158 -51 190c0 81 21 162 71 225c10 13 23 28 51 51c48 40 145 102 304 102c32 0 128 -3 219 -45c58 -27 114 -71 151 -124c58 -84 62 -177 62 -211zM805 353c0 60 -16 102 -26 123c-76 163 -277 162 -317 161c-30 -1 -157 -8 -239 -90c-14 -14 -42 -45 -59 -95
c-11 -32 -16 -69 -16 -103c0 -26 3 -102 51 -167c10 -13 25 -31 56 -53c41 -29 110 -61 227 -61c19 0 66 0 119 14c99 26 171 92 195 192c3 14 9 43 9 79z" />
    <glyph glyph-name="Ocircumflex" unicode="&#xd4;" horiz-adv-x="958" 
d="M640 753h-82l-80 69l-83 -70h-79l108 125h107zM906 343c0 -41 -6 -151 -92 -240c-49 -51 -157 -122 -334 -122c-18 0 -59 1 -108 9c-48 7 -191 33 -273 165c-48 78 -51 158 -51 190c0 81 21 162 71 225c10 13 23 28 51 51c48 40 145 102 304 102c32 0 128 -3 219 -45
c58 -27 114 -71 151 -124c58 -84 62 -177 62 -211zM805 353c0 60 -16 102 -26 123c-76 163 -277 162 -317 161c-30 -1 -157 -8 -239 -90c-14 -14 -42 -45 -59 -95c-11 -32 -16 -69 -16 -103c0 -26 3 -102 51 -167c10 -13 25 -31 56 -53c41 -29 110 -61 227 -61
c19 0 66 0 119 14c99 26 171 92 195 192c3 14 9 43 9 79z" />
    <glyph glyph-name="Oacute" unicode="&#xd3;" horiz-adv-x="958" 
d="M620 878l-126 -125h-65l64 125h127zM906 343c0 -41 -6 -151 -92 -240c-49 -51 -157 -122 -334 -122c-18 0 -59 1 -108 9c-48 7 -191 33 -273 165c-48 78 -51 158 -51 190c0 81 21 162 71 225c10 13 23 28 51 51c48 40 145 102 304 102c32 0 128 -3 219 -45
c58 -27 114 -71 151 -124c58 -84 62 -177 62 -211zM805 353c0 60 -16 102 -26 123c-76 163 -277 162 -317 161c-30 -1 -157 -8 -239 -90c-14 -14 -42 -45 -59 -95c-11 -32 -16 -69 -16 -103c0 -26 3 -102 51 -167c10 -13 25 -31 56 -53c41 -29 110 -61 227 -61
c19 0 66 0 119 14c99 26 171 92 195 192c3 14 9 43 9 79z" />
    <glyph glyph-name="Ograve" unicode="&#xd2;" horiz-adv-x="958" 
d="M530 755h-66l-120 126h125zM906 343c0 -41 -6 -151 -92 -240c-49 -51 -157 -122 -334 -122c-18 0 -59 1 -108 9c-48 7 -191 33 -273 165c-48 78 -51 158 -51 190c0 81 21 162 71 225c10 13 23 28 51 51c48 40 145 102 304 102c32 0 128 -3 219 -45
c58 -27 114 -71 151 -124c58 -84 62 -177 62 -211zM805 353c0 60 -16 102 -26 123c-76 163 -277 162 -317 161c-30 -1 -157 -8 -239 -90c-14 -14 -42 -45 -59 -95c-11 -32 -16 -69 -16 -103c0 -26 3 -102 51 -167c10 -13 25 -31 56 -53c41 -29 110 -61 227 -61
c19 0 66 0 119 14c99 26 171 92 195 192c3 14 9 43 9 79z" />
    <glyph glyph-name="Ntilde" unicode="&#xd1;" horiz-adv-x="917" 
d="M651 815c-39 -28 -77 -55 -116 -55c-52 0 -104 40 -156 40c-28 0 -44 -12 -72 -34l-36 44c38 31 78 61 121 61c51 0 101 -40 153 -40c27 0 45 12 71 29zM829 0h-98l-553 584l2 -584h-96v706h103l549 -583l-3 583h96v-706z" />
    <glyph glyph-name="Eth" unicode="&#xd0;" horiz-adv-x="875" 
d="M823 363c1 -67 -14 -140 -57 -207c-99 -157 -274 -156 -399 -156h-282v343h-85v68h85v295h351c46 0 92 0 138 -12c174 -44 248 -189 249 -331zM721 356c1 99 -42 221 -174 257c-36 10 -75 10 -111 10h-250v-212h324v-68h-324v-258h206c51 0 102 1 153 17
c128 41 175 149 176 254z" />
    <glyph glyph-name="Idieresis" unicode="&#xcf;" horiz-adv-x="271" 
d="M308 773h-97v103h97v-103zM45 774h-97v103h97v-103zM186 0h-102v706h102v-706z" />
    <glyph glyph-name="Icircumflex" unicode="&#xce;" horiz-adv-x="271" 
d="M297 753h-82l-81 69l-82 -70h-79l107 125h107zM186 0h-102v706h102v-706z" />
    <glyph glyph-name="Iacute" unicode="&#xcd;" horiz-adv-x="271" 
d="M276 878l-126 -125h-65l64 125h127zM186 0h-102v706h102v-706z" />
    <glyph glyph-name="Igrave" unicode="&#xcc;" horiz-adv-x="271" 
d="M186 755h-65l-120 126h125zM186 0h-102v706h102v-706z" />
    <glyph glyph-name="Edieresis" unicode="&#xcb;" horiz-adv-x="792" 
d="M589 773h-97v103h97v-103zM326 774h-97v103h97v-103zM762 0h-677v706h651v-87h-551v-210h537v-84h-537v-238h577v-87z" />
    <glyph glyph-name="Ecircumflex" unicode="&#xca;" horiz-adv-x="792" 
d="M578 753h-82l-81 69l-82 -70h-79l107 125h107zM762 0h-677v706h651v-87h-551v-210h537v-84h-537v-238h577v-87z" />
    <glyph glyph-name="Eacute" unicode="&#xc9;" horiz-adv-x="792" 
d="M557 878l-126 -125h-65l64 125h127zM762 0h-677v706h651v-87h-551v-210h537v-84h-537v-238h577v-87z" />
    <glyph glyph-name="Egrave" unicode="&#xc8;" horiz-adv-x="792" 
d="M468 755h-66l-120 126h125zM762 0h-677v706h651v-87h-551v-210h537v-84h-537v-238h577v-87z" />
    <glyph glyph-name="Ccedilla" unicode="&#xc7;" horiz-adv-x="917" 
d="M887 193c-32 -56 -50 -79 -80 -106c-118 -106 -301 -104 -316 -104l-11 -32c29 0 67 -1 95 -34c17 -20 17 -44 17 -49c0 -63 -58 -103 -153 -103c-32 0 -58 4 -90 10l20 51c34 -8 47 -10 65 -10c40 0 67 16 67 42c0 30 -27 42 -67 42c-10 0 -21 -1 -31 -2l30 86
c-23 2 -71 4 -130 23c-176 57 -251 197 -254 342c-2 139 53 225 121 281c43 35 83 54 97 60c64 26 145 37 208 37c80 0 191 -17 271 -68c35 -22 57 -46 71 -60c30 -33 48 -64 55 -77l-107 -23c-9 15 -22 43 -58 72c-64 53 -163 68 -228 68c-163 0 -324 -74 -324 -279
c0 -125 68 -290 331 -290c10 0 168 -9 260 95c19 22 30 43 35 50z" />
    <glyph glyph-name="Aring" unicode="&#xc5;" horiz-adv-x="833" 
d="M530 834c0 -14 -3 -25 -8 -36c-11 -25 -43 -60 -107 -60c-7 0 -28 1 -48 7c-41 13 -70 46 -70 91c0 19 6 34 10 41c21 38 67 51 108 52c15 0 28 -2 43 -6c42 -12 73 -44 72 -89zM834 0h-116l-86 174h-434l-86 -174h-113l366 706h107zM469 835c0 3 -1 12 -5 20
c-6 12 -21 28 -52 27c-44 -1 -55 -32 -55 -48c0 -8 3 -17 7 -23c6 -10 22 -24 51 -24c27 0 54 17 54 48zM589 255l-173 350l-176 -350h349z" />
    <glyph glyph-name="Adieresis" unicode="&#xc4;" horiz-adv-x="833" 
d="M590 774h-98v103h98v-103zM327 774h-97v103h97v-103zM834 0h-116l-86 174h-434l-86 -174h-113l366 706h107zM589 255l-173 350l-176 -350h349z" />
    <glyph glyph-name="Atilde" unicode="&#xc3;" horiz-adv-x="833" 
d="M609 815c-39 -28 -77 -55 -116 -55c-51 0 -103 40 -155 40c-28 0 -45 -12 -73 -34l-36 44c38 31 78 61 121 61c51 0 102 -40 153 -40c27 0 45 12 71 29zM834 0h-116l-86 174h-434l-86 -174h-113l366 706h107zM589 255l-173 350l-176 -350h349z" />
    <glyph glyph-name="Acircumflex" unicode="&#xc2;" horiz-adv-x="833" 
d="M578 753h-82l-81 69l-82 -70h-79l107 125h107zM834 0h-116l-86 174h-434l-86 -174h-113l366 706h107zM589 255l-173 350l-176 -350h349z" />
    <glyph glyph-name="Aacute" unicode="&#xc1;" horiz-adv-x="833" 
d="M557 878l-126 -125h-65l64 125h127zM834 0h-116l-86 174h-434l-86 -174h-113l366 706h107zM589 255l-173 350l-176 -350h349z" />
    <glyph glyph-name="Agrave" unicode="&#xc0;" horiz-adv-x="833" 
d="M468 755h-66l-120 126h125zM834 0h-116l-86 174h-434l-86 -174h-113l366 706h107zM589 255l-173 350l-176 -350h349z" />
    <glyph glyph-name="mu" unicode="&#xb5;" horiz-adv-x="742" 
d="M736 0c-8 -1 -13 -2 -17 -2c-35 -3 -40 -4 -58 -4c-66 0 -95 21 -102 74c-63 -60 -125 -85 -209 -85c-69 0 -134 19 -181 54v-232h-94v683h94v-246c0 -49 3 -71 11 -92c21 -53 82 -83 166 -83c65 0 125 20 165 54c18 16 31 36 36 58c3 12 4 25 4 45v263h95v-359
c0 -47 15 -65 56 -65c12 0 22 0 34 3v-66z" />
    <glyph glyph-name="plusminus" unicode="&#xb1;" horiz-adv-x="772" 
d="M680 381h-245v-224h-98v224h-245v86h245v220h98v-220h245v-86zM680 0h-588v86h588v-86z" />
    <glyph glyph-name="degree" unicode="&#xb0;" horiz-adv-x="354" 
d="M338 594c0 -89 -71 -162 -161 -162s-161 73 -161 162s72 161 161 161c91 0 161 -71 161 -161zM256 596c0 44 -35 79 -79 79s-79 -35 -79 -79c0 -43 36 -79 79 -79c44 0 79 35 79 79z" />
    <glyph glyph-name="registered" unicode="&#xae;" horiz-adv-x="840" 
d="M776 354c0 -201 -156 -357 -357 -357c-197 0 -355 158 -355 356s158 356 357 356c198 0 355 -157 355 -355zM738 352c0 180 -140 321 -318 321c-175 0 -317 -144 -317 -321s140 -319 317 -319c176 0 318 142 318 319zM611 147h-84l-124 175h-68v-175h-70v416h151
c81 0 111 -4 137 -20c29 -18 45 -51 45 -96c0 -71 -32 -105 -113 -121zM528 444c0 20 -7 37 -19 47c-14 10 -27 13 -75 13h-98v-122h96c42 0 59 5 74 15s22 26 22 47z" />
    <glyph glyph-name="logicalnot" unicode="&#xac;" horiz-adv-x="772" 
d="M681 7h-99l1 246h-526v86h624v-332z" />
    <glyph glyph-name="copyright" unicode="&#xa9;" horiz-adv-x="840" 
d="M776 354c0 -201 -156 -357 -357 -357c-197 0 -355 158 -355 356s158 356 357 356c198 0 355 -157 355 -355zM737 352c0 180 -139 321 -317 321c-175 0 -317 -144 -317 -321s140 -319 317 -319c176 0 317 142 317 319zM631 281c-28 -94 -102 -146 -207 -146
c-132 0 -221 85 -221 211c0 131 96 224 230 224c99 0 167 -45 194 -129l-68 -17c-24 60 -63 86 -126 86c-96 0 -159 -63 -159 -159c0 -92 61 -154 153 -154c69 0 120 36 137 97z" />
    <glyph glyph-name="brokenbar" unicode="&#xa6;" horiz-adv-x="229" 
d="M164 387h-99v378h99v-378zM164 -153h-99v378h99v-378z" />
    <glyph glyph-name="threesuperior" unicode="&#xb3;" horiz-adv-x="458" 
d="M417 373c0 -75 -62 -133 -187 -133c-49 0 -135 10 -177 73c-14 20 -19 43 -24 64l67 16c1 -5 2 -24 12 -41c28 -46 91 -52 126 -52c49 0 77 10 95 33c11 14 15 30 15 43c0 19 -7 35 -12 42c-23 31 -72 32 -137 32h-21v54h33c55 0 90 0 112 28c8 10 10 23 10 33
c0 38 -38 71 -103 71c-1 0 -74 3 -103 -49c-9 -17 -9 -40 -9 -42l-67 14c0 3 7 36 18 56c25 46 73 76 155 78c73 2 129 -23 156 -55c10 -12 26 -38 26 -71c0 -26 -10 -55 -41 -76c-9 -6 -20 -9 -22 -9c53 -15 78 -66 78 -109z" />
    <glyph glyph-name="twosuperior" unicode="&#xb2;" horiz-adv-x="458" 
d="M410 246h-363v68c108 48 223 118 251 150c12 13 31 39 31 74c0 36 -29 97 -111 96c-28 -1 -110 -15 -110 -109c0 -5 1 -9 1 -14l-70 10c0 6 1 41 12 69c21 54 77 101 171 101c132 0 178 -93 178 -153c0 -44 -20 -76 -32 -92c-47 -61 -173 -122 -228 -145c15 2 25 5 41 5
h229v-60z" />
    <glyph glyph-name="onesuperior" unicode="&#xb9;" horiz-adv-x="458" 
d="M284 246h-70v338c-29 -13 -54 -17 -112 -17h-9v49c77 2 112 26 138 73h53v-443z" />
    <glyph glyph-name="threequarters" unicode="&#xbe;" horiz-adv-x="1042" 
d="M1013 104h-86v-104h-67v104h-255v57l267 281h55v-279h86v-59zM804 670l-432 -682l-49 30l432 683zM417 373c0 -75 -62 -133 -187 -133c-49 0 -135 10 -177 73c-14 20 -19 43 -24 64l67 16c1 -5 2 -24 12 -41c28 -46 91 -52 126 -52c49 0 77 10 95 33c11 14 15 30 15 43
c0 19 -7 35 -12 42c-23 31 -72 32 -137 32h-21v54h33c55 0 90 0 112 28c8 10 10 23 10 33c0 38 -38 71 -103 71c-1 0 -74 3 -103 -49c-9 -17 -9 -40 -9 -42l-67 14c0 3 7 36 18 56c25 46 73 76 155 78c73 2 129 -23 156 -55c10 -12 26 -38 26 -71c0 -26 -10 -55 -41 -76
c-9 -6 -20 -9 -22 -9c53 -15 78 -66 78 -109zM866 361c-6 -10 -11 -17 -18 -26l-164 -173h176v141c0 31 4 42 6 58z" />
    <glyph glyph-name="onehalf" unicode="&#xbd;" horiz-adv-x="1042" 
d="M994 0h-364v69c109 48 222 118 251 149c12 14 31 39 31 75c0 35 -28 97 -111 95c-27 0 -109 -15 -109 -109v-14l-69 10c0 6 0 42 11 70c22 53 78 100 171 100c133 0 178 -92 178 -153c0 -44 -19 -76 -32 -92c-47 -60 -172 -122 -228 -144c15 2 26 4 41 4h230v-60z
M716 670l-432 -682l-49 30l431 683zM284 246h-70v338c-29 -13 -54 -17 -112 -17h-9v49c77 2 112 26 138 73h53v-443z" />
    <glyph glyph-name="onequarter" unicode="&#xbc;" horiz-adv-x="1042" 
d="M1013 104h-86v-104h-67v104h-255v57l267 281h55v-279h86v-59zM760 670l-432 -682l-49 30l432 683zM284 246h-70v338c-29 -13 -54 -17 -112 -17h-9v49c77 2 112 26 138 73h53v-443zM866 361c-6 -10 -11 -17 -18 -26l-164 -173h176v141c0 31 4 42 6 58z" />
    <glyph glyph-name="Euro" unicode="&#x20ac;" horiz-adv-x="933" 
d="M880 608l-48 -92c-23 34 -87 78 -141 97c-51 18 -98 25 -170 25c-110 0 -195 -31 -242 -87c-25 -30 -47 -77 -54 -111h575l-30 -62h-552c0 -20 0 -27 3 -50h523l-30 -61h-484c37 -129 143 -197 309 -197c90 0 196 27 258 65c22 14 40 28 66 54v-124
c-94 -56 -201 -83 -331 -83c-226 0 -377 105 -410 285h-91l33 61h49c-1 10 -1 16 -1 23c0 5 1 15 2 27h-83l33 62h56c35 182 185 286 411 286c155 0 285 -44 349 -118z" />
    </font>
</defs>
</svg>
